coor
一代宗師

[2015] [歐美] [喜劇] [WEB-1080P] 十一月規則 November.Rule.2015.1080p.NF.WEBRip.DD5.1.x264-PiA 6.12GB

-->

帖子完整標題:十一月規則 November.Rule.2015.1080p.NF.WEBRip.DD5.1.x264-PiA 6.12GB




◎譯  名 十一月規則
◎片  名 November Rule
◎年  代 2015
◎產  地 美國
◎類  別 喜劇
◎語  言 英語
◎上映日期 2015-02-14(美國)
◎IMDb評分 5.4/10 from 809 users
◎IMDb鏈接 https://www.imdb.com/title/tt3273434
◎豆瓣評分 0/10 from 0 users
◎豆瓣鏈接 https://movie.douban.com/subject/26921907/
◎片  長 94分鐘
◎導  演 麥克·艾略特 Mike Elliot
◎編  劇 Candice Childress / Juwan Lee / Cecelia Ross
◎主  演 莫·麥克雷 Mo McRae
      塔緹娜·阿里 Tatyana Ali
      DJ·考爾斯 DJ Qualls
      La La Anthony
      瑞克·岡薩雷斯 Rick Gonzalez
      杰·埃利斯 Jay Ellis
      Joyful Drake
      維多利亞·洛威爾 Victoria Rowell
      巴瑞·波斯威克 Barry Bostwick
      費松·拉夫 Faizon Love
      瑪西·格雷 Macy Gray
      卡莉·霍克 Kali Hawk
      Nellie Perez
      Starshell
      泰加 Tyga


◎簡  介

  和未來的運動鞋的企業家史提夫|誰仍在從他爸爸|死了一個“十一月”規則以保持著距離的女人誰似乎對他們的關系太嚴重。每年的11月1日|史提夫使了一個天大的謊言為了與他的現任女友分手。然而|今年|當他給美麗的利亞走在她的論文|他意識到自己的不成熟和專制統治也就失去了他夢想中的女人。但他是否能贏得利亞似乎越來越懷疑|尤其是她開始約會的職業體育明星| James Avedon后。
Video
ID : 1
Format : AVC
Format/Info : Advanced Video Codec
Format profile : [email protected]
Format settings : CABAC / 4 Ref Frames
Format settings, CABAC : Yes
Format settings, Reference frames : 4 frames
Format settings, GOP : M=2, N=15
Muxing mode : Header stripping
Codec ID : V_MPEG4/ISO/AVC
Duration : 1 h 34 min
Bit rate : 8 715 kb/s
Width : 1 920 pixels
Height : 1 080 pixels
Display aspect ratio : 16:9
Frame rate mode : Constant
Frame rate : 23.976 (24000/1001) FPS
Color space : YUV
Chroma subsampling : 4:2:0
Bit depth : 8 bits
Scan type : Progressive
Bits/(Pixel*Frame) : 0.175
Stream size : 5.74 GiB (94%)
Writing library : x264 core 148 r2721 72d53ab
Encoding settings : cabac=1 / ref=4 / deblock=1:-3:-3 / analyse=0x3:0x133 / me=umh / subme=10 / psy=1 / psy_rd=1.00:0.15 / mixed_ref=1 / me_range=24 / chroma_me=1 / trellis=2 / 8x8dct=1 / cqm=0 / deadzone=21,11 / fast_pskip=1 / chroma_qp_offset=-2 / threads=12 / lookahead_threads=2 / sliced_threads=0 / nr=0 / decimate=1 / interlaced=0 / bluray_compat=0 / constrained_intra=0 / bframes=8 / b_pyramid=2 / b_adapt=2 / b_bias=0 / direct=3 / weightb=1 / open_gop=0 / weightp=2 / keyint=240 / keyint_min=23 / scenecut=40 / intra_refresh=0 / rc_lookahead=60 / rc=crf / mbtree=1 / crf=17.0 / qcomp=0.60 / qpmin=0 / qpmax=69 / qpstep=4 / ip_ratio=1.40 / aq=3:0.80
Language : English
Default : Yes
Forced : No
Statistics Tags Issue : mkvmerge v8.3.0 ('Over the Horizon') 64bit 2016-11-21 09:38:08 / mkvmerge v5.1.0 ('And so it goes') built on Feb 1 2012 11:32:58 2016-11-21 19:37:03
FromStats_BitRate : 8898110
FromStats_Duration : 01:34:21.698000000
FromStats_FrameCount : 135745
FromStats_StreamSize : 6297302065

Audio
ID : 2
Format : AC-3
Format/Info : Audio Coding 3
Commercial name : Dolby Digital
Muxing mode : Header stripping
Codec ID : A_AC3
Duration : 1 h 34 min
Bit rate mode : Constant
Bit rate : 384 kb/s
Channel(s) : 6 channels
Channel layout : L R C LFE Ls Rs
Sampling rate : 48.0 kHz
Frame rate : 31.250 FPS (1536 SPF)
Compression mode : Lossy
Stream size : 259 MiB (4%)
Language : English
Service kind : Complete Main
Default : Yes
Forced : Yes
Statistics Tags Issue : mkvmerge v8.3.0 ('Over the Horizon') 64bit 2016-11-21 09:38:08 / mkvmerge v5.1.0 ('And so it goes') built on Feb 1 2012 11:32:58 2016-11-21 19:37:03
FromStats_BitRate : 384000
FromStats_Duration : 01:34:21.728000000
FromStats_FrameCount : 176929
FromStats_StreamSize : 271762944

Text #1
ID : 3
Format : UTF-8
Codec ID : S_TEXT/UTF8
Codec ID/Info : UTF-8 Plain Text
Language : English
Default : No
Forced : No
Statistics Tags Issue : mkvmerge v8.3.0 ('Over the Horizon') 64bit 2016-11-21 09:38:08 / mkvmerge v5.1.0 ('And so it goes') built on Feb 1 2012 11:32:58 2016-11-21 19:37:03
FromStats_BitRate : 103
FromStats_Duration : 01:33:52.002000000
FromStats_FrameCount : 2313
FromStats_StreamSize : 72638

Text #2
ID : 4
Format : UTF-8
Codec ID : S_TEXT/UTF8
Codec ID/Info : UTF-8 Plain Text
Language : Italian
Default : No
Forced : No
Statistics Tags Issue : mkvmerge v8.3.0 ('Over the Horizon') 64bit 2016-11-21 09:38:08 / mkvmerge v5.1.0 ('And so it goes') built on Feb 1 2012 11:32:58 2016-11-21 19:37:03
FromStats_BitRate : 86
FromStats_Duration : 01:30:33.679000000
FromStats_FrameCount : 1502
FromStats_StreamSize : 58792

Text #3
ID : 5
Format : UTF-8
Codec ID : S_TEXT/UTF8
Codec ID/Info : UTF-8 Plain Text
Language : German
Default : No
Forced : No
Statistics Tags Issue : mkvmerge v8.3.0 ('Over the Horizon') 64bit 2016-11-21 09:38:08 / mkvmerge v5.1.0 ('And so it goes') built on Feb 1 2012 11:32:58 2016-11-21 19:37:03
FromStats_BitRate : 86
FromStats_Duration : 01:30:33.887000000
FromStats_FrameCount : 1504
FromStats_StreamSize : 58860

Text #4
ID : 6
Format : UTF-8
Codec ID : S_TEXT/UTF8
Codec ID/Info : UTF-8 Plain Text
Language : Spanish
Default : No
Forced : No
Statistics Tags Issue : mkvmerge v8.3.0 ('Over the Horizon') 64bit 2016-11-21 09:38:08 / mkvmerge v5.1.0 ('And so it goes') built on Feb 1 2012 11:32:58 2016-11-21 19:37:03
FromStats_BitRate : 85
FromStats_Duration : 01:30:27.130000000
FromStats_FrameCount : 1722
FromStats_StreamSize : 58053

Text #5
ID : 7
Format : UTF-8
Codec ID : S_TEXT/UTF8
Codec ID/Info : UTF-8 Plain Text
Language : Portuguese
Default : No
Forced : No
Statistics Tags Issue : mkvmerge v8.3.0 ('Over the Horizon') 64bit 2016-11-21 09:38:08 / mkvmerge v5.1.0 ('And so it goes') built on Feb 1 2012 11:32:58 2016-11-21 19:37:03
FromStats_BitRate : 83
FromStats_Duration : 01:30:34.763000000
FromStats_FrameCount : 1500
FromStats_StreamSize : 56898





1 個附件 售價 大小 下載 時間

November.Rule.2015.1080p.NF.WEBRip.DD5.1.x264-PiA.torrent 0 金幣 61.79K 112 次 2月前

#1樓
發帖時間:2020-02-01 01:32:09   |   回復數:1
911degrees
隱世仙人♂
非常感謝,謝謝分享
2月前 #2樓
游客組