conanlcg
超級版主

[更 早] [歐美] [劇情] [BD-Remux] 躍馬山莊/來了一個騎馬人 Comes.a.Horseman.1978.1080p.BluRay.REMUX.AVC.LPCM.2.0-FGT 25.88GB

-->

帖子完整標題:躍馬山莊/來了一個騎馬人 Comes.a.Horseman.1978.1080p.BluRay.REMUX.AVC.LPCM.2.0-FGT 25.88GB




◎譯  名 躍馬山莊 / 來了一個騎馬人 / 牧場風云
◎片  名 Comes a Horseman
◎年  代 1978
◎產  地 美國
◎類  別 劇情 / 愛情 / 西部
◎語  言 英語
◎上映日期 1978-10-25
◎IMDb評分 6.3/10 from 2196 users
◎IMDb鏈接 https://www.imdb.com/title/tt0077360
◎豆瓣評分 0/10 from 0 users
◎豆瓣鏈接 https://movie.douban.com/subject/1303288/
◎片  長 118 分鐘
◎導  演 艾倫·J·帕庫拉 Alan J. Pakula
◎編  劇 Dennis Lynton Clark
◎主  演 詹姆斯·凱恩 James Caan
      Jane Fonda
      Jason Robards


◎標  簽 JaneFonda | 西部 | Jane_Fonda | James_Caan | 1978 | 美國 | Jason_Robards | 電影

◎簡  介

  暫無相關劇情介紹

◎獲獎情況

  第51屆奧斯卡金像獎(1979)
  最佳男配角(提名) 理查德·法恩斯沃斯
Video
ID : 1
Format : AVC
Format/Info : Advanced Video Codec
Format profile : [email protected]
Format settings : CABAC / 3 Ref Frames
Format settings, CABAC : Yes
Format settings, Reference frames : 3 frames
Codec ID : V_MPEG4/ISO/AVC
Duration : 1 h 58 min
Bit rate mode : Variable
Bit rate : 28.0 Mb/s
Maximum bit rate : 36.0 Mb/s
Width : 1 920 pixels
Height : 1 080 pixels
Display aspect ratio : 16:9
Frame rate mode : Constant
Frame rate : 23.976 (24000/1001) FPS
Color space : YUV
Chroma subsampling : 4:2:0
Bit depth : 8 bits
Scan type : Progressive
Bits/(Pixel*Frame) : 0.563
Stream size : 23.2 GiB (90%)
Title : Comes.a.Horseman.1978.1080p.BluRay.REMUX.AVC.LPCM.2.0-FGT
Writing library : x264 core 157 r2935 545de2f
Encoding settings : cabac=1 / ref=4 / deblock=1:0:0 / analyse=0x3:0x133 / me=umh / subme=10 / psy=1 / psy_rd=1.00:0.00 / mixed_ref=1 / me_range=24 / chroma_me=1 / trellis=2 / 8x8dct=1 / cqm=0 / deadzone=21,11 / fast_pskip=1 / chroma_qp_offset=-2 / threads=12 / lookahead_threads=1 / sliced_threads=0 / slices=4 / nr=0 / decimate=1 / interlaced=0 / bluray_compat=1 / constrained_intra=0 / bframes=3 / b_pyramid=1 / b_adapt=2 / b_bias=0 / direct=3 / weightb=1 / open_gop=1 / weightp=1 / keyint=24 / keyint_min=1 / scenecut=40 / intra_refresh=0 / rc_lookahead=24 / rc=2pass / mbtree=1 / bitrate=28000 / ratetol=0.1 / qcomp=0.90 / qpmin=1 / qpmax=69 / qpstep=4 / cplxblur=20.0 / qblur=0.5 / vbv_maxrate=36000 / vbv_bufsize=30000 / nal_hrd=vbr / filler=0 / ip_ratio=1.40 / aq=1:1.00
Language : English
Default : No
Forced : No
Color range : Limited
Color primaries : BT.709
Transfer characteristics : BT.709
Matrix coefficients : BT.709

Audio #1
ID : 2
Format : PCM
Format settings : Little / Signed
Codec ID : A_PCM/INT/LIT
Duration : 1 h 58 min
Bit rate mode : Constant
Bit rate : 2 304 kb/s
Channel(s) : 2 channels
Sampling rate : 48.0 kHz
Frame rate : 30.000 FPS (1600 SPF)
Bit depth : 24 bits
Stream size : 1.91 GiB (7%)
Title : Comes.a.Horseman.1978.1080p.BluRay.REMUX.AVC.LPCM.2.0-FGT
Language : English
Default : Yes
Forced : No

Audio #2
ID : 3
Format : AC-3
Format/Info : Audio Coding 3
Commercial name : Dolby Digital
Codec ID : A_AC3
Duration : 1 h 58 min
Bit rate mode : Constant
Bit rate : 320 kb/s
Channel(s) : 2 channels
Channel layout : L R
Sampling rate : 48.0 kHz
Frame rate : 31.250 FPS (1536 SPF)
Bit depth : 16 bits
Compression mode : Lossy
Stream size : 271 MiB (1%)
Title : Comes.a.Horseman.1978.1080p.BluRay.REMUX.AVC.LPCM.2.0-FGT
Language : English
Service kind : Complete Main
Default : No
Forced : No

Audio #3
ID : 4
Format : AC-3
Format/Info : Audio Coding 3
Commercial name : Dolby Digital
Codec ID : A_AC3
Duration : 1 h 58 min
Bit rate mode : Constant
Bit rate : 320 kb/s
Channel(s) : 2 channels
Channel layout : L R
Sampling rate : 48.0 kHz
Frame rate : 31.250 FPS (1536 SPF)
Bit depth : 16 bits
Compression mode : Lossy
Stream size : 271 MiB (1%)
Title : Comes.a.Horseman.1978.1080p.BluRay.REMUX.AVC.LPCM.2.0-FGT
Language : English
Service kind : Complete Main
Default : No
Forced : No

Audio #4
ID : 5
Format : AC-3
Format/Info : Audio Coding 3
Commercial name : Dolby Digital
Codec ID : A_AC3
Duration : 1 h 58 min
Bit rate mode : Constant
Bit rate : 320 kb/s
Channel(s) : 2 channels
Channel layout : L R
Sampling rate : 48.0 kHz
Frame rate : 31.250 FPS (1536 SPF)
Bit depth : 16 bits
Compression mode : Lossy
Stream size : 271 MiB (1%)
Title : Comes.a.Horseman.1978.1080p.BluRay.REMUX.AVC.LPCM.2.0-FGT
Language : English
Service kind : Complete Main
Default : No
Forced : No

Text
ID : 6
Format : PGS
Muxing mode : zlib
Codec ID : S_HDMV/PGS
Codec ID/Info : Picture based subtitle format used on BDs/HD-DVDs
Duration : 1 h 52 min
Bit rate : 18.8 kb/s
Count of elements : 1652
Stream size : 15.2 MiB (0%)
Title : English-PGS
Language : English
Default : Yes
Forced : No

Menu
00:00:00.000 : en:Chapter 01
00:09:32.154 : en:Chapter 02
00:17:54.073 : en:Chapter 03
00:28:24.369 : en:Chapter 04
00:38:29.140 : en:Chapter 05
00:46:43.300 : en:Chapter 06
00:59:02.247 : en:Chapter 07
01:07:11.861 : en:Chapter 08
01:22:09.424 : en:Chapter 09
01:28:10.868 : en:Chapter 10
01:38:09.925 : en:Chapter 11
01:48:20.368 : en:Chapter 12





1 個附件 售價 大小 下載 時間

Comes.a.Horseman.1978.1080p.BluRay.REMUX.AVC.LPCM.2.0-FGT.torrent 0 金幣 65.24K 14 次 21分鐘前

#1樓
發帖時間:2019-10-15 19:39:01   |   回復數:0
游客組