conanlcg
超級版主

[更 早] [歐美] [劇情] [BD-Remux] 鐵血雙探/麥迪根之戰 Madigan.1968.1080p.BluRay.REMUX.AVC.DTS-HD.MA.2.0-FGT 25.95GB

-->

帖子完整標題:鐵血雙探/麥迪根之戰 Madigan.1968.1080p.BluRay.REMUX.AVC.DTS-HD.MA.2.0-FGT 25.95GB




◎譯  名 鐵血雙探 / 麥迪根之戰
◎片  名 Madigan
◎年  代 1968
◎產  地 美國
◎類  別 劇情 / 犯罪
◎語  言 英語
◎上映日期 1968-03-13
◎IMDb評分 6.5/10 from 2979 users
◎IMDb鏈接 https://www.imdb.com/title/tt0063256
◎豆瓣評分 6.6/10 from 125 users
◎豆瓣鏈接 https://movie.douban.com/subject/1293888/
◎片  長 101 分鐘
◎導  演 唐·希格爾 Don Siegel
◎編  劇 亞伯拉罕·鮑倫斯基 Abraham Polonsky / 霍華德·A·羅德曼 Howard A. Rodman / Richard Dougherty
◎主  演 理查德·威德馬克 Richard Widmark
      亨利·方達 Henry Fonda


◎標  簽 美國 | 美國電影 | 唐·希格爾 | 犯罪 | 亨利·方達 | 理查德·威德馬克 | Richard_Widmark | Henry_Fonda

◎簡  介

  紐約市警探梅迪根和伯納洛對一間公寓進行例行突擊,突擊罪犯貝內許所住的公寓。兩名警探打開門后,看到貝內許女友的裸體愣住了,讓貝內許有機可乘,奪走他們的槍然后逃逸。兩名警探也發現原來這不是一般的例行突擊,貝內許其實是一個遭通緝的殺人犯。對于他們的長官羅素而言,貝內許并不是唯一的問題,羅素不但被情婦拋棄,還被控濫用暴力和貪污。梅迪根和伯納洛有七十二小時的時間,來阻止貝內許再次殺人。
Video
ID : 1
Format : AVC
Format/Info : Advanced Video Codec
Format profile : [email protected]
Format settings : CABAC / 3 Ref Frames
Format settings, CABAC : Yes
Format settings, Reference frames : 3 frames
Codec ID : V_MPEG4/ISO/AVC
Duration : 1 h 40 min
Bit rate mode : Variable
Bit rate : 34.9 Mb/s
Maximum bit rate : 38.0 Mb/s
Width : 1 920 pixels
Height : 1 080 pixels
Display aspect ratio : 16:9
Frame rate mode : Constant
Frame rate : 23.976 (24000/1001) FPS
Color space : YUV
Chroma subsampling : 4:2:0
Bit depth : 8 bits
Scan type : Progressive
Bits/(Pixel*Frame) : 0.703
Stream size : 24.6 GiB (95%)
Title : Madigan.1968.1080p.BluRay.REMUX.AVC.DTS-HD.MA.2.0-FGT
Language : English
Default : No
Forced : No
Color range : Limited
Color primaries : BT.709
Transfer characteristics : BT.709
Matrix coefficients : BT.709

Audio
ID : 2
Format : DTS XLL
Format/Info : Digital Theater Systems
Commercial name : DTS-HD Master Audio
Codec ID : A_DTS
Duration : 1 h 40 min
Bit rate mode : Variable
Bit rate : 1 900 kb/s
Channel(s) : 2 channels
Channel layout : L R
Sampling rate : 48.0 kHz
Frame rate : 93.750 FPS (512 SPF)
Bit depth : 24 bits
Compression mode : Lossless
Stream size : 1.34 GiB (5%)
Title : Madigan.1968.1080p.BluRay.REMUX.AVC.DTS-HD.MA.2.0-FGT
Language : English
Default : Yes
Forced : No

Text
ID : 3
Format : PGS
Muxing mode : zlib
Codec ID : S_HDMV/PGS
Codec ID/Info : Picture based subtitle format used on BDs/HD-DVDs
Duration : 1 h 36 min
Bit rate : 35.7 kb/s
Count of elements : 2114
Stream size : 24.7 MiB (0%)
Title : English-PGS
Language : English
Default : Yes
Forced : No

Menu
00:00:00.000 : en:Chapter 01
00:02:42.912 : en:Chapter 02
00:09:47.670 : en:Chapter 03
00:16:20.771 : en:Chapter 04
00:31:05.321 : en:Chapter 05
00:33:46.107 : en:Chapter 06
00:36:42.033 : en:Chapter 07
00:41:54.553 : en:Chapter 08
00:48:44.421 : en:Chapter 09
00:53:13.023 : en:Chapter 10
01:06:40.246 : en:Chapter 11
01:18:09.101 : en:Chapter 12
01:25:19.155 : en:Chapter 13
01:28:11.869 : en:Chapter 14
01:32:48.813 : en:Chapter 15
01:39:39.640 : en:Chapter 16





1 個附件 售價 大小 下載 時間

Madigan.1968.1080p.BluRay.REMUX.AVC.DTS-HD.MA.2.0-FGT.torrent 0 金幣 65.43K 84 次 30分鐘前

#1樓
發帖時間:2019-10-15 19:34:37   |   回復數:0
游客組