conanlcg
超級版主

[2018] [歐美] [劇情] [BD-Remux] 皮膚/皮囊 Skin.2018.1080p.BluRay.REMUX.AVC.DTS-HD.MA.5.1-FGT 22.24GB

-->

帖子完整標題:皮膚/皮囊 Skin.2018.1080p.BluRay.REMUX.AVC.DTS-HD.MA.5.1-FGT 22.24GB




◎譯  名 皮膚 / 皮囊
◎片  名 Skin
◎年  代 2018
◎產  地 美國
◎類  別 劇情
◎語  言 英語
◎上映日期 2018-09-08(多倫多電影節) / 2019-07-26(美國)
◎IMDb評分 7.1/10 from 1329 users
◎IMDb鏈接 http://www.imdb.com/title/tt6043142
◎豆瓣評分 7.7/10 from 65 users
◎豆瓣鏈接 https://movie.douban.com/subject/27041467/
◎片  長 110分鐘
◎導  演 蓋·納蒂弗 Guy Nattiv
◎編  劇 蓋·納蒂弗 Guy Nattiv
◎主  演 杰米·貝爾 Jamie Bell
      維拉·法米加 Vera Farmiga
      丹妮爾·麥克唐納 Danielle Macdonald
      瑪麗·斯圖爾特·馬斯特森 Mary Stuart Masterson
      麥克·柯爾特 Mike Colter
      比爾·坎普 Bill Camp
      路易莎·克勞瑟 Louisa Krause
      珍娜·莉·格林 Jenna Leigh Green
      凱萊·羅杰斯 Kylie Rogers
      羅素·普斯勒 Russell Posner
      丹尼爾·亨紹爾 Daniel Henshall
      佐伊·瑪格麗特·科萊蒂 Zoe Margaret Colletti
      Rob Figueroa
      邁克爾·維拉爾 Michael Villar
      貝蒂娜·斯凱 Bettina Skye
      賈斯汀·L·威爾遜 Justin L. Wilson
      吉姆·福特 Jim Ford
      喬安娜·哈靈頓 Joanna Herrington
      Ghazi Albuliwi


◎標  簽 美國 | JamieBell | 2018 | 犯罪 | 美國電影 | 劇情 | 種族 | 杰米·貝爾

◎簡  介

  杰米·貝爾將出演新片[皮膚](Skin,暫譯),丹妮爾·麥克唐納([帕蒂蛋糕$])也已加盟,導演蓋·納蒂弗([神之子])。影片改編自真人真事。布里恩·溫德爾曾是黑幫組織“溫蘭德光頭黨”頭目,全身刺滿了紋身。2006年婚后的溫德爾決定退出黑幫并進行了25次激光清除手術,去 除了面部頸部手部的紋身。
(https://movie.douban.com/subject/27624787/ 短片版)

◎獲獎情況

  第43屆多倫多國際電影節(2018)
  國際影評人聯盟獎 國際影評人特別獎 蓋·納蒂弗



Video
ID : 1
Format : AVC
Format/Info : Advanced Video Codec
Format profile : [email protected]
Format settings : CABAC / 4 Ref Frames
Format settings, CABAC : Yes
Format settings, Reference frames : 4 frames
Codec ID : V_MPEG4/ISO/AVC
Duration : 1 h 58 min
Bit rate mode : Variable
Bit rate : 25.0 Mb/s
Maximum bit rate : 35.0 Mb/s
Width : 1 920 pixels
Height : 1 080 pixels
Display aspect ratio : 16:9
Frame rate mode : Constant
Frame rate : 23.976 (24000/1001) FPS
Standard : NTSC
Color space : YUV
Chroma subsampling : 4:2:0
Bit depth : 8 bits
Scan type : Progressive
Bits/(Pixel*Frame) : 0.503
Stream size : 20.7 GiB (93%)
Title : Skin.2018.1080p.BluRay.REMUX.AVC.DTS-HD.MA.5.1-FGT
Language : English
Default : No
Forced : No
Color range : Limited
Color primaries : BT.709
Transfer characteristics : BT.709
Matrix coefficients : BT.709

Audio
ID : 2
Format : DTS XLL
Format/Info : Digital Theater Systems
Commercial name : DTS-HD Master Audio
Codec ID : A_DTS
Duration : 1 h 58 min
Bit rate mode : Variable
Bit rate : 1 891 kb/s
Channel(s) : 6 channels
Channel layout : C L R Ls Rs LFE
Sampling rate : 48.0 kHz
Frame rate : 93.750 FPS (512 SPF)
Bit depth : 16 bits
Compression mode : Lossless
Stream size : 1.56 GiB (7%)
Title : Skin.2018.1080p.BluRay.REMUX.AVC.DTS-HD.MA.5.1-FGT
Language : English
Default : Yes
Forced : No

Menu
00:00:00.000 : en:Chapter 01
00:05:08.599 : en:Chapter 02
00:12:43.137 : en:Chapter 03
00:18:54.550 : en:Chapter 04
00:30:26.074 : en:Chapter 05
00:36:40.615 : en:Chapter 06
00:46:40.506 : en:Chapter 07
01:04:07.385 : en:Chapter 08
01:17:10.959 : en:Chapter 09
01:26:51.372 : en:Chapter 10
01:36:28.866 : en:Chapter 11
01:44:10.827 : en:Chapter 12





1 個附件 售價 大小 下載 時間

Skin.2018.1080p.BluRay.REMUX.AVC.DTS-HD.MA.5.1-FGT.torrent 0 金幣 56.13K 84 次 26分鐘前

#1樓
發帖時間:2019-10-15 19:32:27   |   回復數:1
jokingcheung
一代宗師
謝謝分享
10分鐘前 #2樓
游客組