conanlcg
超級版主

[更 早] [歐美] [劇情] [BD-Remux] 小城故事 Small.Town.Story.1953.1080p.BluRay.REMUX.AVC.LPCM.2.0-FGT 12.63GB

-->

帖子完整標題:小城故事 Small.Town.Story.1953.1080p.BluRay.REMUX.AVC.LPCM.2.0-FGT 12.63GB




◎譯  名 小城故事
◎片  名 Small Town Story
◎年  代 1953
◎產  地 英國
◎類  別 劇情
◎語  言 英語
◎IMDb評分 6.7/10 from 38 users
◎IMDb鏈接 https://www.imdb.com/title/tt0046331
◎豆瓣評分 0/10 from 0 users
◎豆瓣鏈接 https://movie.douban.com/subject/1300152/
◎導  演 蒙哥馬利·塔利 Montgomery Tully
◎編  劇 喬治·費舍 George Fisher / 唐納德·休斯敦 Donald Houston / 弗朗茲·馬里斯楚卡 Franz Marischka / Maurice Weissberger
◎主  演 唐納德·休斯敦 Donald Houston
      蘇珊·肖 Susan Shaw
      艾倫·惠特利 Alan Wheatley
      肯特·沃爾頓 Kent Walton
      喬治梅利特 George Merritt


◎標  簽 突然很想看小城故事。。。

◎簡  介

  暫無相關劇情介紹
Video
ID : 1
Format : AVC
Format/Info : Advanced Video Codec
Format profile : [email protected]
Format settings : CABAC / 3 Ref Frames
Format settings, CABAC : Yes
Format settings, Reference frames : 3 frames
Codec ID : V_MPEG4/ISO/AVC
Duration : 1 h 8 min
Bit rate mode : Variable
Bit rate : 24.8 Mb/s
Maximum bit rate : 33.0 Mb/s
Width : 1 920 pixels
Height : 1 080 pixels
Display aspect ratio : 16:9
Frame rate mode : Constant
Frame rate : 24.000 FPS
Standard : NTSC
Color space : YUV
Chroma subsampling : 4:2:0
Bit depth : 8 bits
Scan type : Progressive
Bits/(Pixel*Frame) : 0.499
Stream size : 11.9 GiB (94%)
Title : Small.Town.Story.1953.1080p.BluRay.REMUX.AVC.LPCM.2.0-FGT
Language : English
Default : No
Forced : No
Color range : Limited
Color primaries : BT.709
Transfer characteristics : BT.709
Matrix coefficients : BT.709

Audio
ID : 2
Format : PCM
Format settings : Little / Signed
Codec ID : A_PCM/INT/LIT
Duration : 1 h 8 min
Bit rate mode : Constant
Bit rate : 1 536 kb/s
Channel(s) : 2 channels
Sampling rate : 48.0 kHz
Frame rate : 30.000 FPS (1600 SPF)
Bit depth : 16 bits
Stream size : 751 MiB (6%)
Title : Small.Town.Story.1953.1080p.BluRay.REMUX.AVC.LPCM.2.0-FGT
Language : English
Default : Yes
Forced : No

Text
ID : 3
Format : PGS
Muxing mode : zlib
Codec ID : S_HDMV/PGS
Codec ID/Info : Picture based subtitle format used on BDs/HD-DVDs
Duration : 1 h 8 min
Bit rate : 192 kb/s
Count of elements : 5023
Stream size : 93.9 MiB (1%)
Title : English-PGS
Language : English
Default : Yes
Forced : No

Menu
00:00:00.000 : en:Chapter 01
00:05:17.208 : en:Chapter 02
00:09:35.541 : en:Chapter 03
00:15:11.125 : en:Chapter 04
00:21:06.666 : en:Chapter 05
00:32:31.750 : en:Chapter 06
00:38:16.958 : en:Chapter 07
00:43:33.708 : en:Chapter 08
00:48:32.041 : en:Chapter 09
00:52:14.583 : en:Chapter 10
00:57:20.041 : en:Chapter 11
01:06:17.916 : en:Chapter 12





1 個附件 售價 大小 下載 時間

Small.Town.Story.1953.1080p.BluRay.REMUX.AVC.LPCM.2.0-FGT.torrent 0 金幣 63.68K 28 次 27分鐘前

#1樓
發帖時間:2019-10-15 19:30:25   |   回復數:0
游客組