conanlcg
超級版主

[更 早] [歐美] [劇情] [BD-Remux] 義膽情深 Sugar.Hill.1993.1080p.BluRay.REMUX.AVC.DTS-HD.MA.2.0-FGT 32.13GB

-->

帖子完整標題:義膽情深 Sugar.Hill.1993.1080p.BluRay.REMUX.AVC.DTS-HD.MA.2.0-FGT 32.13GB




◎譯  名 義膽情深
◎片  名 Sugar Hill
◎年  代 1993
◎產  地 美國
◎類  別 劇情 / 驚悚
◎語  言 英語
◎上映日期 1994-02-25
◎IMDb評分 5.9/10 from 3825 users
◎IMDb鏈接 https://www.imdb.com/title/tt0107079
◎豆瓣評分 0/10 from 0 users
◎豆瓣鏈接 https://movie.douban.com/subject/1305968/
◎片  長 123 分鐘
◎導  演 里昂·艾查索 Leon Ichaso
◎編  劇 Barry Michael Cooper
◎主  演 韋斯利·斯奈普斯 Wesley Snipes
      坎蒂·亞歷山大 Khandi Alexander
      德沃恩·尼克森 DeVaughn Nixon


◎標  簽 犯罪 | 黑人 | 街頭 | 90s | 美國 | 種族

◎簡  介

  Hardened, uncomprimising drug dealer Roemello Skuggs decides to quit his scumbag profession so he may start a new life with his girlfriend. However, he soon learns getting out is nowhere near as easy as getting in, as everything gradually builds up to end in tragedy.
Video
ID : 1
Format : AVC
Format/Info : Advanced Video Codec
Format profile : [email protected]
Format settings : CABAC / 3 Ref Frames
Format settings, CABAC : Yes
Format settings, Reference frames : 3 frames
Codec ID : V_MPEG4/ISO/AVC
Duration : 2 h 3 min
Bit rate mode : Variable
Bit rate : 34.9 Mb/s
Maximum bit rate : 38.0 Mb/s
Width : 1 920 pixels
Height : 1 080 pixels
Display aspect ratio : 16:9
Frame rate mode : Constant
Frame rate : 23.976 (24000/1001) FPS
Color space : YUV
Chroma subsampling : 4:2:0
Bit depth : 8 bits
Scan type : Progressive
Bits/(Pixel*Frame) : 0.702
Stream size : 30.1 GiB (94%)
Title : Sugar.Hill.1993.1080p.BluRay.REMUX.AVC.DTS-HD.MA.2.0-FGT
Language : English
Default : No
Forced : No
Color range : Limited
Color primaries : BT.709
Transfer characteristics : BT.709
Matrix coefficients : BT.709

Audio #1
ID : 2
Format : DTS XLL
Format/Info : Digital Theater Systems
Commercial name : DTS-HD Master Audio
Codec ID : A_DTS
Duration : 2 h 3 min
Bit rate mode : Variable
Bit rate : 2 102 kb/s
Channel(s) : 2 channels
Channel layout : L R
Sampling rate : 48.0 kHz
Frame rate : 93.750 FPS (512 SPF)
Bit depth : 24 bits
Compression mode : Lossless
Stream size : 1.81 GiB (6%)
Title : Sugar.Hill.1993.1080p.BluRay.REMUX.AVC.DTS-HD.MA.2.0-FGT
Language : English
Default : Yes
Forced : No

Audio #2
ID : 3
Format : AC-3
Format/Info : Audio Coding 3
Commercial name : Dolby Digital
Codec ID : A_AC3
Duration : 2 h 3 min
Bit rate mode : Constant
Bit rate : 224 kb/s
Channel(s) : 2 channels
Channel layout : L R
Sampling rate : 48.0 kHz
Frame rate : 31.250 FPS (1536 SPF)
Bit depth : 16 bits
Compression mode : Lossy
Stream size : 198 MiB (1%)
Title : Sugar.Hill.1993.1080p.BluRay.REMUX.AVC.DTS-HD.MA.2.0-FGT
Language : English
Service kind : Complete Main
Default : No
Forced : No

Text
ID : 4
Format : PGS
Muxing mode : zlib
Codec ID : S_HDMV/PGS
Codec ID/Info : Picture based subtitle format used on BDs/HD-DVDs
Duration : 1 h 54 min
Bit rate : 30.6 kb/s
Count of elements : 2727
Stream size : 25.0 MiB (0%)
Title : English-PGS
Language : English
Default : Yes
Forced : No

Menu
00:00:00.000 : en:Chapter 01
00:03:19.282 : en:Chapter 02
00:07:13.891 : en:Chapter 03
00:15:51.659 : en:Chapter 04
00:23:56.309 : en:Chapter 05
00:36:48.331 : en:Chapter 06
00:40:56.996 : en:Chapter 07
00:51:08.065 : en:Chapter 08
01:02:38.629 : en:Chapter 09
01:07:55.654 : en:Chapter 10
01:16:24.079 : en:Chapter 11
01:29:27.904 : en:Chapter 12
01:41:09.855 : en:Chapter 13
01:48:50.565 : en:Chapter 14
01:56:27.522 : en:Chapter 15
01:58:24.138 : en:Chapter 16





1 個附件 售價 大小 下載 時間

Sugar.Hill.1993.1080p.BluRay.REMUX.AVC.DTS-HD.MA.2.0-FGT.torrent 0 金幣 80.87K 49 次 34分鐘前

#1樓
發帖時間:2019-10-15 19:28:27   |   回復數:0
游客組