conanlcg
超級版主

[更 早] [歐美] [喜劇] [BD-Remux] 變男變女變變變 Switch.1991.1080p.BluRay.REMUX.AVC.DTS-HD.MA.2.0-FGT 25.59GB

-->

帖子完整標題:變男變女變變變 Switch.1991.1080p.BluRay.REMUX.AVC.DTS-HD.MA.2.0-FGT 25.59GB




◎譯  名 變男變女變變變
◎片  名 Switch
◎年  代 1991
◎產  地 美國
◎類  別 喜劇 / 犯罪 / 奇幻
◎語  言 英語
◎上映日期 1991-05-10
◎IMDb評分 5.8/10 from 8081 users
◎IMDb鏈接 https://www.imdb.com/title/tt0103016
◎豆瓣評分 6.8/10 from 420 users
◎豆瓣鏈接 https://movie.douban.com/subject/1301801/
◎片  長 103 分鐘
◎導  演 Blake Edwards
◎編  劇 Blake Edwards
◎主  演 Ellen Barkin
      Jimmy Smits
      JoBeth Williams


◎標  簽 喜劇 | 美國 | 奇幻 | 美國電影 | 愛情 | 變男變女變變變 | 1991 | 構思很秒的電影

◎簡  介

  獵艷高手史提夫在一晚的狂歡派對上被三名情婦聯手殺死,但上帝卻因他風流債太多而拒絕他上天堂。經過史提夫的苦苦哀求,上帝給他一次重生的機會,并且許諾只要他找到一個真心愛他的女人之時,他的靈魂便可以上天堂。當史提夫重返人間之后,惡魔為了讓這個游戲更加好玩,讓他變成了一個女人。
  以前的花花公子史提夫要找一個女人上床輕而易舉,但是,變成女人之后的阿曼達(埃倫·巴爾金 Ellen Barkin 飾)要找一個愛自己的女人可真不那么容易,她不但要應付生活中遇到的種種不便,而且還要找到一個愛自己的女人,這無疑讓影片充滿喜劇效果同時又讓人滿懷期待……
Video
ID : 1
Format : AVC
Format/Info : Advanced Video Codec
Format profile : [email protected]
Format settings : CABAC / 4 Ref Frames
Format settings, CABAC : Yes
Format settings, Reference frames : 4 frames
Format settings, GOP : M=3, N=23
Codec ID : V_MPEG4/ISO/AVC
Duration : 1 h 43 min
Bit rate mode : Variable
Bit rate : 34.4 Mb/s
Maximum bit rate : 35.0 Mb/s
Width : 1 920 pixels
Height : 1 080 pixels
Display aspect ratio : 16:9
Frame rate mode : Constant
Frame rate : 23.976 (24000/1001) FPS
Standard : NTSC
Color space : YUV
Chroma subsampling : 4:2:0
Bit depth : 8 bits
Scan type : Progressive
Bits/(Pixel*Frame) : 0.692
Stream size : 24.8 GiB (97%)
Title : Switch.1991.1080p.BluRay.REMUX.AVC.DTS-HD.MA.2.0-FGT
Language : English
Default : No
Forced : No
Color range : Limited
Color primaries : BT.709
Transfer characteristics : BT.709
Matrix coefficients : BT.709

Audio
ID : 2
Format : DTS XLL
Format/Info : Digital Theater Systems
Commercial name : DTS-HD Master Audio
Codec ID : A_DTS
Duration : 1 h 43 min
Bit rate mode : Variable
Bit rate : 1 068 kb/s
Channel(s) : 2 channels
Channel layout : L R
Sampling rate : 48.0 kHz
Frame rate : 93.750 FPS (512 SPF)
Bit depth : 16 bits
Compression mode : Lossless
Stream size : 788 MiB (3%)
Title : Switch.1991.1080p.BluRay.REMUX.AVC.DTS-HD.MA.2.0-FGT
Language : English
Default : Yes
Forced : No

Text
ID : 3
Format : PGS
Muxing mode : zlib
Codec ID : S_HDMV/PGS
Codec ID/Info : Picture based subtitle format used on BDs/HD-DVDs
Duration : 1 h 39 min
Bit rate : 21.8 kb/s
Count of elements : 2641
Stream size : 15.5 MiB (0%)
Title : English-PGS
Language : English
Default : Yes
Forced : No

Menu
00:00:00.000 : en:Chapter 01
00:02:20.557 : en:Chapter 02
00:08:59.121 : en:Chapter 03
00:16:41.542 : en:Chapter 04
00:24:52.949 : en:Chapter 05
00:33:37.265 : en:Chapter 06
00:42:18.953 : en:Chapter 07
00:53:14.983 : en:Chapter 08
01:08:24.058 : en:Chapter 09
01:21:13.618 : en:Chapter 10
01:29:03.755 : en:Chapter 11





1 個附件 售價 大小 下載 時間

Switch.1991.1080p.BluRay.REMUX.AVC.DTS-HD.MA.2.0-FGT.torrent 0 金幣 64.51K 35 次 30分鐘前

#1樓
發帖時間:2019-10-15 19:26:28   |   回復數:0
游客組