conanlcg
超級版主

[更 早] [歐美] [驚悚] [BD-Remux] 妖夜兇靈/沙漠血吻 The.Forsaken.2001.UNCUT.1080p.BluRay.REMUX.AVC.DTS-HD.MA.5.1-FGT 22.24

-->

帖子完整標題:妖夜兇靈/沙漠血吻 The.Forsaken.2001.UNCUT.1080p.BluRay.REMUX.AVC.DTS-HD.MA.5.1-FGT 22.24GB




◎譯  名 妖夜兇靈 / 沙漠血吻(臺)
◎片  名 The Forsaken
◎年  代 2001
◎產  地 美國
◎類  別 驚悚 / 恐怖
◎語  言 英語
◎上映日期 2001-04-27
◎IMDb評分 5.3/10 from 7964 users
◎IMDb鏈接 http://www.imdb.com/title/tt0245120
◎豆瓣評分 5.3/10 from 44 users
◎豆瓣鏈接 https://movie.douban.com/subject/1295569/
◎片  長 90 分鐘
◎導  演 J.S. Cardone
◎編  劇 J.S. Cardone
◎主  演 Kerr Smith
      Brendan Fehr
      Johnathon Schaech


◎標  簽 吸血鬼 | 美國 | 驚悚 | 恐怖 | Fehr,Brendan | 美國電影 | 電影 | 沙漠血吻

◎簡  介

  肖恩(克爾-史密斯飾)一路從洛杉磯開車前往佛羅里達,去參加他姐姐的婚禮,順便捎去一些Mercedes葡萄酒。他壓根就沒想到會碰上一位搭車者。從那時起,他的這次跨州旅行便成了一場聞末所聞、充滿血腥味的惡夢。
肖恩的這個新同伴尼克(布倫丹-費爾飾),看上去并不象是一個百無聊賴、漫無目的的旅行者。他是一個“獵手”,一個四處游蕩又無家可歸的年輕人,他的獵物還是"血淋淋的"。在深夜無人的高速公路上,一群人兇殘地吸食那些不幸的受害者。一句話,他們是吸血鬼。肖恩根本就沒想到尼克正害著這種"吸血病",幾個月以來尼克一直在跟蹤著各色各樣的人。肖恩與他的這位怪異的“副駕駛”上路以來,整個晚上他都莫名其妙地停了一會又一會。看來,他將永遠也參加不了他姐姐的婚禮了。
當肖恩和尼克搭載上了迷茫而驚魂未定的梅甘(伊莎貝拉-邁科飾)時,追殺的殺手們以為她死了就放過了她。梅甘不僅是個受害者,她還是一個人類的誘餌。肖恩不斷被她的脆弱和美麗所吸引。當肖恩自己也被染上這種致命的病菌時,他的勝算更小了。尼克繼續回避肖恩的問題,但最后,經過一場激烈的爭論,他被迫向肖恩坦白了一切----能治愈他們"疾病"的唯一辦法就是殺死吸血鬼的主體----那個吸血鬼團伙的邪惡頭領基特(喬納森-謝爾徹飾)。這是一場驚險的死亡與時間的賽跑,如果他們失敗的話,他們將與敵手遭遇到同樣的命運----永遠成為那伙貪得無厭的不死鬼中的一員。
今天就可能是他們今生的最后一天了。
本片主要演員基本上來自去年很賣座的校園恐怖片《死亡終點(Final Destination)》。

Video
ID : 1
Format : AVC
Format/Info : Advanced Video Codec
Format profile : [email protected]
Format settings : CABAC / 4 Ref Frames
Format settings, CABAC : Yes
Format settings, Reference frames : 4 frames
Codec ID : V_MPEG4/ISO/AVC
Duration : 1 h 30 min
Bit rate mode : Constant
Bit rate : 30.0 Mb/s
Width : 1 920 pixels
Height : 1 080 pixels
Display aspect ratio : 16:9
Frame rate mode : Constant
Frame rate : 23.976 (24000/1001) FPS
Color space : YUV
Chroma subsampling : 4:2:0
Bit depth : 8 bits
Scan type : Progressive
Bits/(Pixel*Frame) : 0.603
Stream size : 18.4 GiB (83%)
Title : The.Forsaken.2001.UNCUT.1080p.BluRay.REMUX.AVC.DTS-HD.MA.5.1-FGT
Language : English
Default : No
Forced : No

Audio #1
ID : 2
Format : DTS XLL
Format/Info : Digital Theater Systems
Commercial name : DTS-HD Master Audio
Codec ID : A_DTS
Duration : 1 h 30 min
Bit rate mode : Variable
Bit rate : 4 046 kb/s
Channel(s) : 6 channels
Channel layout : C L R Ls Rs LFE
Sampling rate : 48.0 kHz
Frame rate : 93.750 FPS (512 SPF)
Bit depth : 24 bits
Compression mode : Lossless
Stream size : 2.56 GiB (12%)
Title : The.Forsaken.2001.UNCUT.1080p.BluRay.REMUX.AVC.DTS-HD.MA.5.1-FGT
Language : English
Default : Yes
Forced : No

Audio #2
ID : 3
Format : DTS XLL
Format/Info : Digital Theater Systems
Commercial name : DTS-HD Master Audio
Codec ID : A_DTS
Duration : 1 h 30 min
Bit rate mode : Variable
Bit rate : 1 998 kb/s
Channel(s) : 2 channels
Channel layout : L R
Sampling rate : 48.0 kHz
Frame rate : 93.750 FPS (512 SPF)
Bit depth : 24 bits
Compression mode : Lossless
Stream size : 1.27 GiB (6%)
Title : The.Forsaken.2001.UNCUT.1080p.BluRay.REMUX.AVC.DTS-HD.MA.5.1-FGT
Language : English
Default : No
Forced : No

Menu
00:00:00.000 : de:Chapter 01
00:00:02.544 : de:Chapter 02
00:08:00.521 : de:Chapter 03
00:15:56.705 : de:Chapter 04
00:24:00.272 : de:Chapter 05
00:32:03.212 : de:Chapter 06
00:40:00.815 : de:Chapter 07
00:48:05.257 : de:Chapter 08
00:55:57.103 : de:Chapter 09
01:04:02.630 : de:Chapter 10
01:12:03.819 : de:Chapter 11
01:20:01.630 : de:Chapter 12
01:28:09.784 : de:Chapter 13





1 個附件 售價 大小 下載 時間

The.Forsaken.2001.UNCUT.1080p.BluRay.REMUX.AVC.DTS-HD.MA.5.1-FGT.torrent 0 金幣 56.15K 70 次 39分鐘前

#1樓
發帖時間:2019-10-15 19:24:29   |   回復數:0
游客組