conanlcg
超級版主

[2019] [歐美] [恐怖] [BD-720P] 五音不全 Tone-Deaf.2019.720p.BluRay.x264-ROVERS 4.38GB

-->

帖子完整標題:五音不全 Tone-Deaf.2019.720p.BluRay.x264-ROVERS 4.38GB




◎譯  名 五音不全
◎片  名 Tone-Deaf
◎年  代 2019
◎產  地 美國
◎類  別 恐怖
◎語  言 英語
◎IMDb評分 6.2/10 from 56 users
◎IMDb鏈接 http://www.imdb.com/title/tt8332666
◎豆瓣評分 0/10 from 0 users
◎豆瓣鏈接 https://movie.douban.com/subject/30226762/
◎導  演 小理查德·貝茨 Richard Bates Jr.
◎編  劇 小理查德·貝茨 Richard Bates Jr.
◎主  演 阿曼達·克魯 Amanda Crew
      安娜琳·麥考德 AnnaLynne McCord
      羅伯特·帕特里克 Robert Patrick
      金·德萊尼 Kim Delaney
      凱莎·卡斯特-休伊斯 Keisha Castle-Hughes
      內爾森·富蘭克林 Nelson Franklin
      Johnny Pemberton
      塔特·艾靈頓 Tate Ellington
      Hayley Marie Norman
      羅尼·吉恩·貝爾維斯 Ronnie Gene Blevins
      Danny Ramirez
      Gigi Zumbado
      Shane Brady
      Dianna Miranda
      Pia Shah


◎標  簽 恐怖 | 美國電影 | 羅伯特·帕特里克 | 喜劇

◎簡  介

  A woman goes to the countryside to spend a quiet weekend after losing her job and having her last complicated relationship implode. She rents a country house to an old-fashioned widower, who struggles to hide his pyschopatic tendencies.
Video
ID : 1
Format : AVC
Format/Info : Advanced Video Codec
Format profile : [email protected]
Format settings : CABAC / 5 Ref Frames
Format settings, CABAC : Yes
Format settings, Reference frames : 5 frames
Codec ID : V_MPEG4/ISO/AVC
Duration : 1 h 27 min
Bit rate : 5 619 kb/s
Width : 1 280 pixels
Height : 536 pixels
Display aspect ratio : 2.40:1
Frame rate mode : Constant
Frame rate : 23.976 (24000/1001) FPS
Color space : YUV
Chroma subsampling : 4:2:0
Bit depth : 8 bits
Scan type : Progressive
Bits/(Pixel*Frame) : 0.342
Stream size : 3.44 GiB (79%)
Writing library : x264 core 158 r2984 3759fcb
Encoding settings : cabac=1 / ref=5 / deblock=1:-3:-3 / analyse=0x3:0x133 / me=umh / subme=8 / psy=1 / psy_rd=1.00:0.00 / mixed_ref=1 / me_range=16 / chroma_me=1 / trellis=1 / 8x8dct=1 / cqm=0 / deadzone=21,11 / fast_pskip=0 / chroma_qp_offset=-2 / threads=17 / lookahead_threads=2 / sliced_threads=0 / nr=0 / decimate=1 / interlaced=0 / bluray_compat=0 / constrained_intra=0 / bframes=3 / b_pyramid=2 / b_adapt=1 / b_bias=0 / direct=3 / weightb=1 / open_gop=0 / weightp=2 / keyint=250 / keyint_min=23 / scenecut=40 / intra_refresh=0 / rc_lookahead=50 / rc=2pass / mbtree=1 / bitrate=5619 / ratetol=1.0 / qcomp=0.60 / qpmin=0 / qpmax=69 / qpstep=4 / cplxblur=20.0 / qblur=0.5 / vbv_maxrate=62500 / vbv_bufsize=78125 / nal_hrd=none / filler=0 / ip_ratio=1.40 / aq=1:1.00
Default : Yes
Forced : No

Audio
ID : 2
Format : DTS
Format/Info : Digital Theater Systems
Codec ID : A_DTS
Duration : 1 h 27 min
Bit rate mode : Constant
Bit rate : 1 509 kb/s
Channel(s) : 6 channels
Channel layout : C L R Ls Rs LFE
Sampling rate : 48.0 kHz
Frame rate : 93.750 FPS (512 SPF)
Bit depth : 24 bits
Compression mode : Lossy
Stream size : 947 MiB (21%)
Language : English
Default : Yes
Forced : No

Menu
00:00:00.000 : en:00:00:00.000
00:03:29.751 : en:00:03:29.751
00:11:15.383 : en:00:11:15.383
00:15:28.719 : en:00:15:28.719
00:22:46.282 : en:00:22:46.282
00:29:19.967 : en:00:29:19.967
00:33:11.198 : en:00:33:11.198
00:38:21.299 : en:00:38:21.299
00:43:51.462 : en:00:43:51.462
00:49:35.055 : en:00:49:35.055
00:58:35.429 : en:00:58:35.429
01:01:30.020 : en:01:01:30.020
01:05:49.863 : en:01:05:49.863
01:10:10.706 : en:01:10:10.706
01:17:36.026 : en:01:17:36.026
01:22:08.132 : en:01:22:08.132





1 個附件 售價 大小 下載 時間

Tone-Deaf.2019.720p.BluRay.x264-ROVERS.torrent 0 金幣 44.62K 84 次 1小時前

#1樓
發帖時間:2019-10-15 19:05:45   |   回復數:0
游客組