conanlcg
超級版主

[2019] [歐美] [驚悚] [WEB-720P] 心力交瘁/壓力山大 Stressed.to.Death.2019.720p.AMZN.WEBRip.DDP5.1.x264-iKA 2.70GB

-->

帖子完整標題:心力交瘁/壓力山大 Stressed.to.Death.2019.720p.AMZN.WEBRip.DDP5.1.x264-iKA 2.70GB




◎譯  名 心力交瘁 / 壓力山大 / 焦慮不安
◎片  名 Stressed.to.Death
◎年  代 2019
◎產  地 美國
◎類  別 驚悚
◎語  言 英語
◎上映日期 2019-05-24(美國)
◎IMDb評分 5.3/10 from 68 users
◎IMDb鏈接 https://www.imdb.com/title/tt10384806
◎豆瓣評分 0/10 from 0 users
◎豆瓣鏈接 https://movie.douban.com/subject/34857364/
◎片  長 93分鐘
◎導  演 賈瑞德·科恩 Jared Cohn
◎編  劇 賈瑞德·科恩 Jared Cohn / Brian Skiba
◎主  演 吉娜·赫爾頓 Gina Holden
      泰勒·布萊克威爾 Taylor Blackwell
      薩拉·阿爾德里奇 Sarah Aldrich
      杰森·格爾哈特 Jason Gerhardt
      約瑟夫·納賽爾 Joseph Nasser
      克雷格·格利斯 Craig Gellis
      馬克斯·阿德勒 Max Adler
      賈戴維斯 Gia Davis


◎簡  介

  在一次精密的車站搶劫時 一名急救員面對兩名受害者:一名孕婦和一名男子被射殺 但仍活著 當必須先選擇救人的時候 受傷的男人告訴她帶上孕婦 她就這么做了 在她回來抓那個男人的路上 他被強盜殺死了 現在 這名男子的妻子維多利亞已經計劃了十年 要為丈夫的死報仇。
Video
ID : 1
Format : AVC
Format/Info : Advanced Video Codec
Format profile : [email protected]
Format settings : CABAC / 4 Ref Frames
Format settings, CABAC : Yes
Format settings, Reference frames : 4 frames
Codec ID : V_MPEG4/ISO/AVC
Duration : 1 h 33 min
Bit rate mode : Constant
Bit rate : 3 503 kb/s
Nominal bit rate : 6 000 kb/s
Width : 1 280 pixels
Height : 720 pixels
Display aspect ratio : 16:9
Frame rate mode : Constant
Frame rate : 23.976 (24000/1001) FPS
Color space : YUV
Chroma subsampling : 4:2:0
Bit depth : 8 bits
Scan type : Progressive
Bits/(Pixel*Frame) : 0.159
Stream size : 2.28 GiB (85%)
Default : Yes
Forced : No
Color range : Limited
Color primaries : BT.709
Transfer characteristics : BT.709
Matrix coefficients : BT.709

Audio
ID : 2
Format : E-AC-3
Format/Info : Enhanced AC-3
Commercial name : Dolby Digital Plus
Codec ID : A_EAC3
Duration : 1 h 33 min
Bit rate mode : Constant
Bit rate : 640 kb/s
Channel(s) : 6 channels
Channel layout : L R C LFE Ls Rs
Sampling rate : 48.0 kHz
Frame rate : 31.250 FPS (1536 SPF)
Compression mode : Lossy
Stream size : 427 MiB (15%)
Language : English
Service kind : Complete Main
Default : Yes
Forced : No

Text
ID : 3
Format : UTF-8
Codec ID : S_TEXT/UTF8
Codec ID/Info : UTF-8 Plain Text
Duration : 1 h 26 min
Bit rate : 59 b/s
Count of elements : 1532
Stream size : 37.3 KiB (0%)
Language : English
Default : No
Forced : No





1 個附件 售價 大小 下載 時間

Stressed.to.Death.2019.720p.AMZN.WEBRip.DDP5.1.x264-iKA.torrent 0 金幣 27.56K 84 次 1小時前

#1樓
發帖時間:2019-10-15 18:55:57   |   回復數:0
游客組