conanlcg
超級版主

[2008] [其他] [劇情] [WEB-1080P] 成長的彎路 Santa.Mesa.2008.1080p.AMZN.WEBRip.DDP2.0.x264-iKA 5.57GB

-->

帖子完整標題:成長的彎路 Santa.Mesa.2008.1080p.AMZN.WEBRip.DDP2.0.x264-iKA 5.57GB




◎譯  名 成長的彎路
◎片  名 SANTA MESA
◎年  代 2008
◎產  地 菲律賓 / 美國
◎類  別 劇情
◎語  言 英語 / 塔加路語 / 塔加路語
◎上映日期 2008-04-06
◎IMDb評分 5.9/10 from 45 users
◎IMDb鏈接 https://www.imdb.com/title/tt0770751
◎豆瓣評分 0/10 from 0 users
◎豆瓣鏈接 https://movie.douban.com/subject/3095168/
◎片  長 Philippines: 82 分鐘
◎導  演 Ron Morales
◎編  劇 Ron Morales
◎主  演 Archie Adamos
      Billy Balais


◎標  簽 ?

◎簡  介

  12歲的小男孩赫克托在母親死后來到了住在馬尼拉的外婆家里。他與外婆從未見過面。不久他認識了鄰家女孩賽爾和街頭混混米蓋爾。赫克托十分想融入到這個新的環境中去,于是加入了米蓋爾一伙。一天晚上,他在入室盜竊時被喬斯逮個正著,那晚,他的生活發生了改變……
  Following his mother's death, Hector arrives in Manila to live with his grandmother. Unable to speak Tagalog, Hector falls in with a street gang before a photographer takes him under his wing. Haunted by memories of his mother, Hector photographs an anonymous woman when suddenly, these seemingly disconnected lives collide.
  An orphaned boy is thrown head-first into a new and different life in this drama. Twelve-year-old Hector (Jacob Kiron Shalov), who has lived all his life in New Jersey, is riding in the car with his mother when they're struck by another driver; Hector receives only minor injuries, but his mother is killed. With nowhere else to go, Hector is forced to take up an offer to stay with his grandmother, who lives in the Philippines and has never met him. Hector can't speak Tagalog and his grandmother Lita (Angie Ferro) knows no English; not only can't they communicate, but Hector and Lita soon discover they don't much like one another. The teeming slums of Manila are like no place Hector has ever seen, and with few other options he falls in with a gang of teenage thugs led by Miguel (Pierro Rodriguez), who goads him into breaking into a house in a well-to-do neighborhood. Hector is caught red-handed by the owner of the house, Jose (Jaime Tirelli), a photographer who speaks fluent English. Jose insists that Hector work off the damage he's done, but he soon takes the boy under his wing, teaching him a bit about photography and giving him chores to keep him out of trouble. Hector also attracts the attention of a pretty girl, Sel (Maria Lopez), but while they're clearly fond of one another, Hector soon discovers Sel already has a boyfriend -- Miguel. Santa Mesa was the first feature film from writer and director Ron Morales.
Video
ID : 1
Format : AVC
Format/Info : Advanced Video Codec
Format profile : [email protected]
Format settings : CABAC / 4 Ref Frames
Format settings, CABAC : Yes
Format settings, Reference frames : 4 frames
Codec ID : V_MPEG4/ISO/AVC
Duration : 1 h 21 min
Bit rate mode : Constant
Bit rate : 10 000 kb/s
Width : 1 920 pixels
Height : 1 080 pixels
Display aspect ratio : 16:9
Frame rate mode : Constant
Frame rate : 23.976 (24000/1001) FPS
Color space : YUV
Chroma subsampling : 4:2:0
Bit depth : 8 bits
Scan type : Progressive
Bits/(Pixel*Frame) : 0.201
Stream size : 5.44 GiB (98%)
Default : Yes
Forced : No
Color range : Limited
Color primaries : BT.709
Transfer characteristics : BT.709
Matrix coefficients : BT.709

Audio
ID : 2
Format : E-AC-3
Format/Info : Enhanced AC-3
Commercial name : Dolby Digital Plus
Codec ID : A_EAC3
Duration : 1 h 21 min
Bit rate mode : Constant
Bit rate : 224 kb/s
Channel(s) : 2 channels
Channel layout : L R
Sampling rate : 48.0 kHz
Frame rate : 31.250 FPS (1536 SPF)
Compression mode : Lossy
Stream size : 130 MiB (2%)
Language : English
Service kind : Complete Main
Default : Yes
Forced : No

Text
ID : 3
Format : UTF-8
Codec ID : S_TEXT/UTF8
Codec ID/Info : UTF-8 Plain Text
Duration : 1 h 18 min
Bit rate : 16 b/s
Count of elements : 491
Stream size : 9.44 KiB (0%)
Language : English
Default : No
Forced : No





1 個附件 售價 大小 下載 時間

Santa.Mesa.2008.1080p.AMZN.WEBRip.DDP2.0.x264-iKA.torrent 0 金幣 28.37K 91 次 2小時前

#1樓
發帖時間:2019-10-15 17:47:11   |   回復數:0
游客組