conanlcg
超級版主

[2019] [其他] [其他] [WEB-1080P] 當嘉年華到來時我正在拯救自己 Waiting.for.the.Carnival.2019.PORTUGUESE.1080p.NF.WEBRip.DDP5.1.x

-->

帖子完整標題:當嘉年華到來時我正在拯救自己 Waiting.for.the.Carnival.2019.PORTUGUESE.1080p.NF.WEBRip.DDP5.1.x264-IJP 3.71GB




◎譯  名 當嘉年華到來時,我正在拯救自己 / Waiting for the Carnival
◎片  名 Estou Me Guardando Para Quando O Carnaval Chegar
◎年  代 2019
◎產  地 巴西
◎類  別 紀錄片
◎語  言 葡萄牙語
◎上映日期 2019-02-09(柏林國際電影節全景單元)
◎IMDb評分 7.7/10 from 73 users
◎IMDb鏈接 https://www.imdb.com/title/tt10240438
◎豆瓣評分 0/10 from 0 users
◎豆瓣鏈接 https://movie.douban.com/subject/30433531/
◎片  長 86分鐘
◎導  演 馬賽羅·戈麥斯 Marcelo Gomes
◎編  劇 馬賽羅·戈麥斯 Marcelo Gomes

◎標  簽 紀錄片

◎簡  介

  A documentary film about the Brazilian town of Toritama, the self-proclaimed capital of jeans. The workers of the city’s self-managed small businesses only get one real break from their self-exploiting lives in the textile business: the annual Carnival.
  柏林電影節全景單元
Video
ID : 1
Format : AVC
Format/Info : Advanced Video Codec
Format profile : [email protected]
Format settings : CABAC / 3 Ref Frames
Format settings, CABAC : Yes
Format settings, Reference frames : 3 frames
Codec ID : V_MPEG4/ISO/AVC
Duration : 1 h 25 min
Bit rate mode : Variable
Bit rate : 5 800 kb/s
Maximum bit rate : 8 700 kb/s
Width : 1 920 pixels
Height : 1 080 pixels
Display aspect ratio : 16:9
Frame rate mode : Constant
Frame rate : 24.000 FPS
Color space : YUV
Chroma subsampling : 4:2:0
Bit depth : 8 bits
Scan type : Progressive
Bits/(Pixel*Frame) : 0.117
Stream size : 3.33 GiB (90%)
Writing library : x264 core 148 r2715 7e75228
Encoding settings : cabac=1 / ref=3 / deblock=1:0:0 / analyse=0x1:0x111 / me=umh / subme=10 / psy=1 / psy_rd=1.00:0.00 / mixed_ref=1 / me_range=24 / chroma_me=1 / trellis=2 / 8x8dct=0 / cqm=0 / deadzone=21,11 / fast_pskip=1 / chroma_qp_offset=-2 / threads=8 / lookahead_threads=1 / sliced_threads=0 / nr=0 / decimate=1 / interlaced=0 / bluray_compat=0 / stitchable=1 / constrained_intra=0 / bframes=2 / b_pyramid=0 / b_adapt=2 / b_bias=0 / direct=3 / weightb=1 / open_gop=0 / weightp=2 / keyint=250 / keyint_min=24 / scenecut=0 / intra_refresh=0 / rc_lookahead=48 / rc=2pass / mbtree=1 / bitrate=5800 / ratetol=1.0 / qcomp=0.50 / qpmin=6 / qpmax=51 / qpstep=4 / cplxblur=20.0 / qblur=0.5 / vbv_maxrate=8700 / vbv_bufsize=11600 / nal_hrd=vbr / filler=0 / ip_ratio=1.40 / aq=1:1.00
Default : Yes
Forced : No

Audio
ID : 2
Format : E-AC-3
Format/Info : Enhanced AC-3
Commercial name : Dolby Digital Plus
Codec ID : A_EAC3
Duration : 1 h 25 min
Bit rate mode : Constant
Bit rate : 640 kb/s
Channel(s) : 6 channels
Channel layout : L R C LFE Ls Rs
Sampling rate : 48.0 kHz
Frame rate : 31.250 FPS (1536 SPF)
Compression mode : Lossy
Stream size : 393 MiB (10%)
Title : Brazilian Portuguese
Language : Portuguese
Service kind : Complete Main
Default : Yes
Forced : No

Text #1
ID : 3
Format : UTF-8
Codec ID : S_TEXT/UTF8
Codec ID/Info : UTF-8 Plain Text
Duration : 1 h 19 min
Bit rate : 54 b/s
Count of elements : 765
Stream size : 31.7 KiB (0%)
Title : English
Language : English
Default : No
Forced : No

Text #2
ID : 4
Format : UTF-8
Codec ID : S_TEXT/UTF8
Codec ID/Info : UTF-8 Plain Text
Duration : 1 h 25 min
Bit rate : 70 b/s
Count of elements : 1047
Stream size : 44.2 KiB (0%)
Title : Brazilian Portuguese
Language : Portuguese
Default : No
Forced : No





1 個附件 售價 大小 下載 時間

Waiting.for.the.Carnival.2019.PORTUGUESE.1080p.NF.WEBRip.DDP5.1.x264-IJP.torrent 0 金幣 37.75K 105 次 2小時前

#1樓
發帖時間:2019-10-15 17:43:55   |   回復數:0
游客組