conanlcg
超級版主

[2019] [歐美] [喜劇] [WEB-1080P] 恐怖無人機 The.Drone.2019.1080p.WEBRip.x264-RARBG 1.56GB

-->

帖子完整標題:恐怖無人機 The.Drone.2019.1080p.WEBRip.x264-RARBG 1.56GB




◎譯  名 恐怖無人機
◎片  名 The Drone
◎年  代 2019
◎產  地 美國
◎類  別 喜劇 / 恐怖
◎語  言 英語
◎上映日期 2019-01-28(詩蘭丹斯電影節) / 2019-10-15(美國)
◎IMDb評分 5.9/10 from 39 users
◎IMDb鏈接 https://www.imdb.com/title/tt7476524
◎豆瓣評分 0/10 from 0 users
◎豆瓣鏈接 https://movie.douban.com/subject/27600167/
◎片  長 82分鐘
◎導  演 Jordan Rubin
◎編  劇 Jordan Rubin / Al Kaplan / Jon Kaplan
◎主  演 安妮塔·布瑞姆 Anita Briem
      約翰·布羅特頓 John Brotherton
      西蒙·雷克斯 Simon Rex
      瑞克斯·林恩 Rex Linn
      尼爾·桑迪蘭茲 Neil Sandilands
      岡薩洛·門內德斯 Gonzalo Menendez
      艾麗克斯·埃索 Alex Essoe
      克里斯托弗·馬修·庫克 Christopher Matthew Cook
      Harvey B. Jackson
      Travis Geske


◎標  簽 恐怖 | 電影 | 美國電影 | 驚悚 | 美國 | 科幻 | 美國 | 我自己的美利堅

◎簡  介

  一對夫妻買的無人機有了人類意識,且是一個連環殺手的意識,帶來血腥殺機……
Video
ID : 1
Format : AVC
Format/Info : Advanced Video Codec
Format profile : [email protected]
Format settings : CABAC / 4 Ref Frames
Format settings, CABAC : Yes
Format settings, Reference frames : 4 frames
Codec ID : avc1
Codec ID/Info : Advanced Video Coding
Duration : 1 h 21 min
Bit rate : 2 500 kb/s
Width : 1 908 pixels
Height : 1 068 pixels
Display aspect ratio : 16:9
Frame rate mode : Constant
Frame rate : 23.976 (23976/1000) FPS
Color space : YUV
Chroma subsampling : 4:2:0
Bit depth : 8 bits
Scan type : Progressive
Bits/(Pixel*Frame) : 0.051
Stream size : 1.43 GiB (92%)
Writing library : x264 core 152 r2851M ba24899
Encoding settings : cabac=1 / ref=4 / deblock=1:-1:-1 / analyse=0x3:0x113 / me=umh / subme=9 / psy=1 / psy_rd=1.00:0.15 / mixed_ref=1 / me_range=24 / chroma_me=1 / trellis=2 / 8x8dct=1 / cqm=0 / deadzone=21,11 / fast_pskip=1 / chroma_qp_offset=-3 / threads=16 / lookahead_threads=4 / sliced_threads=0 / nr=0 / decimate=1 / interlaced=0 / bluray_compat=0 / constrained_intra=0 / bframes=3 / b_pyramid=2 / b_adapt=2 / b_bias=0 / direct=3 / weightb=1 / open_gop=0 / weightp=2 / keyint=250 / keyint_min=25 / scenecut=40 / intra_refresh=0 / rc_lookahead=50 / rc=2pass / mbtree=1 / bitrate=2500 / ratetol=1.0 / qcomp=0.60 / qpmin=0 / qpmax=69 / qpstep=4 / cplxblur=20.0 / qblur=0.5 / vbv_maxrate=31250 / vbv_bufsize=31250 / nal_hrd=none / filler=0 / ip_ratio=1.40 / aq=3:1.00
Encoded date : UTC 2019-10-15 06:02:56
Tagged date : UTC 2019-10-15 06:02:56
Codec configuration box : avcC

Audio
ID : 2
Format : AAC LC
Format/Info : Advanced Audio Codec Low Complexity
Codec ID : mp4a-40-2
Duration : 1 h 21 min
Duration_LastFrame : -11 ms
Bit rate mode : Constant
Bit rate : 224 kb/s
Channel(s) : 6 channels
Channel layout : C L R Ls Rs LFE
Sampling rate : 48.0 kHz
Frame rate : 46.875 FPS (1024 SPF)
Compression mode : Lossy
Stream size : 131 MiB (8%)
Language : English
Default : Yes
Alternate group : 1
Encoded date : UTC 2019-10-15 06:02:56
Tagged date : UTC 2019-10-15 06:02:56





1 個附件 售價 大小 下載 時間

The.Drone.2019.1080p.WEBRip.x264-RARBG.torrent 0 金幣 16.21K 266 次 2小時前

#1樓
發帖時間:2019-10-15 17:34:48   |   回復數:0
游客組