conanlcg
超級版主

[2016] [韓國] [劇情] [WEB-1080P] 女教師 Misbehavior.2016.KOREAN.1080p.AMZN.WEBRip.DDP2.0.x264-KamiKaze 3.21GB

-->

帖子完整標題:女教師 Misbehavior.2016.KOREAN.1080p.AMZN.WEBRip.DDP2.0.x264-KamiKaze 3.21GB




◎譯  名 女教師 / Misbehavior / Schoolmistress / 越愛越墮落(臺)
◎片  名 ???
◎年  代 2016
◎產  地 韓國
◎類  別 劇情 / 愛情 / 驚悚
◎語  言 韓語
◎上映日期 2016-11-06(夏威夷電影節) / 2017-01-04(韓國)
◎IMDb評分 5.9/10 from 192 users
◎IMDb鏈接 https://www.imdb.com/title/tt6302006
◎豆瓣評分 5.7/10 from 4664 users
◎豆瓣鏈接 https://movie.douban.com/subject/26392843/
◎片  長 96分鐘
◎導  演 金泰泳 Tae-yong Kim
◎編  劇 金泰泳 Tae-yong Kim
◎主  演 金荷娜 Ha-Neul Kim
      李源根 Won-geun Lee
      劉仁英 In-yeong Yu


◎標  簽 韓國 | 倫理 | 師生戀 | 愛情 | 人性 | 劇情 | 陰暗 | 2016

◎簡  介

  《女教師》講述男校高中女教師與學生發生的危險愛情故事。
Video
ID : 1
Format : AVC
Format/Info : Advanced Video Codec
Format profile : [email protected]
Format settings : CABAC / 4 Ref Frames
Format settings, CABAC : Yes
Format settings, Reference frames : 4 frames
Codec ID : V_MPEG4/ISO/AVC
Duration : 1 h 36 min
Bit rate mode : Constant
Bit rate : 4 553 kb/s
Nominal bit rate : 10 000 kb/s
Width : 1 920 pixels
Height : 1 080 pixels
Display aspect ratio : 16:9
Frame rate mode : Constant
Frame rate : 23.976 (24000/1001) FPS
Color space : YUV
Chroma subsampling : 4:2:0
Bit depth : 8 bits
Scan type : Progressive
Bits/(Pixel*Frame) : 0.092
Stream size : 3.05 GiB (95%)
Default : Yes
Forced : No
Color range : Limited
Color primaries : BT.709
Transfer characteristics : BT.709
Matrix coefficients : BT.709

Audio
ID : 2
Format : E-AC-3
Format/Info : Enhanced AC-3
Commercial name : Dolby Digital Plus
Codec ID : A_EAC3
Duration : 1 h 36 min
Bit rate mode : Constant
Bit rate : 224 kb/s
Channel(s) : 2 channels
Channel layout : L R
Sampling rate : 48.0 kHz
Frame rate : 31.250 FPS (1536 SPF)
Compression mode : Lossy
Stream size : 154 MiB (5%)
Language : Korean
Service kind : Complete Main
Default : Yes
Forced : No

Text
ID : 3
Format : UTF-8
Codec ID : S_TEXT/UTF8
Codec ID/Info : UTF-8 Plain Text
Duration : 1 h 35 min
Bit rate : 5 b/s
Count of elements : 195
Stream size : 3.98 KiB (0%)
Title : English [CC](SDH)
Language : English
Default : Yes
Forced : No





1 個附件 售價 大小 下載 時間

Misbehavior.2016.KOREAN.1080p.AMZN.WEBRip.DDP2.0.x264-KamiKaze.torrent 0 金幣 32.61K 791 次 2小時前

#1樓
發帖時間:2019-10-15 17:32:26   |   回復數:1
tanchoohoon
武林盟主
感謝樓主的無私分享
55分鐘前 #2樓
游客組