conanlcg
超級版主

[2019] [歐美] [劇情] [WEB-720P] 拯救佐伊 Saving.Zoe.2019.720p.AMZN.WEBRip.DDP5.1.x264-NTG 2.17GB

-->

帖子完整標題:拯救佐伊 Saving.Zoe.2019.720p.AMZN.WEBRip.DDP5.1.x264-NTG 2.17GB




◎譯  名 拯救佐伊
◎片  名 Saving Zo?
◎年  代 2019
◎產  地 美國
◎類  別 劇情 / 犯罪
◎語  言 英語
◎上映日期 2019-07-12(美國)
◎IMDb評分 4.8/10 from 386 users
◎IMDb鏈接 http://www.imdb.com/title/tt7319822
◎豆瓣評分 0/10 from 0 users
◎豆瓣鏈接 https://movie.douban.com/subject/33955549/
◎片  長 95分鐘
◎導  演 杰弗里·G.亨特 Jeffrey G. Hunt
◎主  演 Laura Marano
      Giorgia Whigham


◎標  簽 美國電影 | 犯罪 | 劇情 | WEB | 2019

◎簡  介

  It's been a year since her older sister's murder, and Echo is still far from being completely all right. Echo has been trying her hardest to be the strong one, while her mother takes too many antidepressants and her father works too much. Now, at the start of her freshmen qigou.cc year of high yakubd.cc school, Echo receives an unlikely gift from Zoe's old boyfriend: her diary. Echo is hesitant to read it but can't put it down after she gets caught up in Zoe's secret life.
Video
ID : 1
Format : AVC
Format/Info : Advanced Video Codec
Format profile : [email protected]
Format settings : CABAC / 4 Ref Frames
Format settings, CABAC : Yes
Format settings, Reference frames : 4 frames
Codec ID : V_MPEG4/ISO/AVC
Duration : 1 h 35 min
Bit rate mode : Constant
Bit rate : 2 628 kb/s
Nominal bit rate : 6 000 kb/s
Width : 1 248 pixels
Height : 520 pixels
Display aspect ratio : 2.40:1
Frame rate mode : Constant
Frame rate : 23.976 (24000/1001) FPS
Color space : YUV
Chroma subsampling : 4:2:0
Bit depth : 8 bits
Scan type : Progressive
Bits/(Pixel*Frame) : 0.169
Stream size : 1.75 GiB (80%)
Default : Yes
Forced : No
Color range : Limited
Color primaries : BT.709
Transfer characteristics : BT.709
Matrix coefficients : BT.709

Audio
ID : 2
Format : E-AC-3
Format/Info : Enhanced AC-3
Commercial name : Dolby Digital Plus
Codec ID : A_EAC3
Duration : 1 h 35 min
Bit rate mode : Constant
Bit rate : 640 kb/s
Channel(s) : 6 channels
Channel layout : L R C LFE Ls Rs
Sampling rate : 48.0 kHz
Frame rate : 31.250 FPS (1536 SPF)
Compression mode : Lossy
Stream size : 436 MiB (20%)
Language : English
Service kind : Complete Main
Default : Yes
Forced : No

Text #1
ID : 3
Format : UTF-8
Codec ID : S_TEXT/UTF8
Codec ID/Info : UTF-8 Plain Text
Duration : 1 h 32 min
Bit rate : 45 b/s
Count of elements : 1103
Stream size : 30.7 KiB (0%)
Language : English
Default : No
Forced : No

Text #2
ID : 4
Format : UTF-8
Codec ID : S_TEXT/UTF8
Codec ID/Info : UTF-8 Plain Text
Duration : 1 h 32 min
Bit rate : 47 b/s
Count of elements : 1199
Stream size : 32.2 KiB (0%)
Title : SDH
Language : English
Default : No
Forced : No

Menu
00:00:00.000 : en:Studio Logo
00:00:23.000 : en:Title Sequence
00:01:00.000 : en:Echo wakes up to go to school
00:03:04.000 : en:Abby and Echo grab lunch together
00:06:36.000 : en:Life at home
00:10:08.000 : en:Marc\'s new car yields a discovery
00:17:36.000 : en:Echo meets with a psychiatrist
00:20:02.000 : en:Echo keeps reading Zoe\'s diary
00:22:04.000 : en:Echo sees Marc at lunch
00:24:48.000 : en:Echo and Abby go to a party
00:28:43.000 : en:Zoe starts her part time job
00:30:54.000 : en:Zoe brings Marc to Theresa\'s party
00:34:01.000 : en:Echo goes to her first high school dance
00:41:05.000 : en:Zoe works toward a modeling career
00:44:42.000 : en:Echo remembers something
00:47:19.000 : en:Echo comes to the party
00:50:52.000 : en:Echo follows in Zoe\'s tracks
00:54:40.000 : en:Echo finds out what Zoe left
01:00:38.000 : en:Another session with the psychiatrist
01:03:08.000 : en:Echo tells her plan to Marc
01:05:31.000 : en:Jason invites Echo to his place
01:10:42.000 : en:Marc distracts Jason
01:14:16.000 : en:Jason offers a deal
01:18:06.000 : en:Jason and Tom argue about what to do next
01:21:38.000 : en:Echo tries to escape
01:23:27.000 : en:The truth always manages to come out
01:28:34.000 : en:It\'s time to move on
01:30:44.000 : en:End Credits





1 個附件 售價 大小 下載 時間

Saving.Zoe.2019.720p.AMZN.WEBRip.DDP5.1.x264-NTG.torrent 0 金幣 22.28K 182 次 2小時前

#1樓
發帖時間:2019-10-15 17:30:26   |   回復數:0
游客組