conanlcg
超級版主

[2019] [歐美] [驚悚] [WEB-720P] 荒島甜心 Sweetheart.2019.720p.AMZN.WEBRip.DDP5.1.x264-NTG 2.33GB

-->

帖子完整標題:荒島甜心 Sweetheart.2019.720p.AMZN.WEBRip.DDP5.1.x264-NTG 2.33GB




◎譯  名 荒島甜心
◎片  名 Sweetheart
◎年  代 2019
◎產  地 美國
◎類  別 驚悚 / 恐怖
◎語  言 英語
◎上映日期 2019-01-28(圣丹斯電影節)
◎IMDb評分 6.5/10 from 83 users
◎IMDb鏈接 https://www.imdb.com/title/tt6560164
◎豆瓣評分 0/10 from 0 users
◎豆瓣鏈接 https://movie.douban.com/subject/26996876/
◎片  長 82分鐘(圣丹斯電影節)
◎導  演 J·D·迪拉德 J.D. Dillard
◎編  劇 J·D·迪拉德 J.D. Dillard / 亞歷克斯·海納 Alex Hyner / 亞歷克斯·塞爾 Alex Theurer
◎主  演 科雷西·克萊門斯 Kiersey Clemons
      艾莫里·科恩 Emory Cohen
      漢娜·曼根·勞倫斯 Hanna Mangan Lawrence
      Andrew Crawford


◎標  簽 恐怖 | 美國 | 驚悚 | 怪獸 | 2019 | 美國電影 | 歐美 | 圣丹斯電影節

◎簡  介

  珍(Kiersey Clemons)沖上岸,來到一個荒涼的島上,已經度過了痛苦的折磨。她孤零零地四處尋找避難所。她只找到一處被遺棄已久的露營地的零星殘骸,疲憊不堪地走完了可怕的旅途,倒下了,希望得到安寧的休息。但是夜晚是這里最危險的時候。這時生物來了。當它滑出水面時,它必須進食。
Video
ID : 1
Format : AVC
Format/Info : Advanced Video Codec
Format profile : [email protected]
Format settings : CABAC / 4 Ref Frames
Format settings, CABAC : Yes
Format settings, Reference frames : 4 frames
Codec ID : V_MPEG4/ISO/AVC
Duration : 1 h 22 min
Bit rate mode : Constant
Bit rate : 3 381 kb/s
Nominal bit rate : 6 000 kb/s
Width : 1 248 pixels
Height : 520 pixels
Display aspect ratio : 2.40:1
Frame rate mode : Constant
Frame rate : 23.976 (24000/1001) FPS
Color space : YUV
Chroma subsampling : 4:2:0
Bit depth : 8 bits
Scan type : Progressive
Bits/(Pixel*Frame) : 0.217
Stream size : 1.95 GiB (84%)
Default : Yes
Forced : No
Color range : Limited
Color primaries : BT.709
Transfer characteristics : BT.709
Matrix coefficients : BT.709

Audio
ID : 2
Format : E-AC-3
Format/Info : Enhanced AC-3
Commercial name : Dolby Digital Plus
Codec ID : A_EAC3
Duration : 1 h 22 min
Bit rate mode : Constant
Bit rate : 640 kb/s
Channel(s) : 6 channels
Channel layout : L R C LFE Ls Rs
Sampling rate : 48.0 kHz
Frame rate : 31.250 FPS (1536 SPF)
Compression mode : Lossy
Stream size : 379 MiB (16%)
Language : English
Service kind : Complete Main
Default : Yes
Forced : No

Text #1
ID : 3
Format : UTF-8
Codec ID : S_TEXT/UTF8
Codec ID/Info : UTF-8 Plain Text
Duration : 1 h 20 min
Bit rate : 20 b/s
Count of elements : 393
Stream size : 12.1 KiB (0%)
Language : English
Default : No
Forced : No

Text #2
ID : 4
Format : UTF-8
Codec ID : S_TEXT/UTF8
Codec ID/Info : UTF-8 Plain Text
Duration : 1 h 22 min
Bit rate : 26 b/s
Count of elements : 682
Stream size : 15.8 KiB (0%)
Title : SDH
Language : English
Default : No
Forced : No





1 個附件 售價 大小 下載 時間

Sweetheart.2019.720p.AMZN.WEBRip.DDP5.1.x264-NTG.torrent 0 金幣 23.78K 595 次 1月前

#1樓
發帖時間:2019-10-15 17:26:15   |   回復數:1
911degrees
隱世仙人♂
非常感謝,謝謝分享
1月前 #2樓
游客組