conanlcg
超級版主

[更 早] [歐美] [劇情] [WEB-1080P] 水舞 The.Waterdance.1992.1080p.AMZN.WEBRip.DDP2.0.x264-KAIZEN 10.04GB

-->

帖子完整標題:水舞 The.Waterdance.1992.1080p.AMZN.WEBRip.DDP2.0.x264-KAIZEN 10.04GB




◎譯  名 水舞
◎片  名 The Waterdance
◎年  代 1992
◎產  地 美國
◎類  別 劇情
◎語  言 英語
◎上映日期 1992-05-13
◎IMDb評分 6.7/10 from 2504 users
◎IMDb鏈接 https://www.imdb.com/title/tt0105789
◎豆瓣評分 0/10 from 0 users
◎豆瓣鏈接 https://movie.douban.com/subject/1301389/
◎片  長 106 分鐘
◎導  演 Michael Steinberg / 尼爾·希門尼斯 Neal Jimenez
◎編  劇 尼爾·希門尼斯 Neal Jimenez
◎主  演 海倫·亨特 Helen Hunt


◎標  簽 美國 | 美國電影 | 海倫·亨特 | 脊髓損傷 | 露 | 老店 | 電影 | 未下載

◎簡  介

  暫無相關劇情介紹
Video
ID : 1
Format : AVC
Format/Info : Advanced Video Codec
Format profile : [email protected]
Format settings : CABAC / 4 Ref Frames
Format settings, CABAC : Yes
Format settings, Reference frames : 4 frames
Codec ID : V_MPEG4/ISO/AVC
Duration : 1 h 46 min
Bit rate : 13.3 Mb/s
Width : 1 920 pixels
Height : 1 080 pixels
Display aspect ratio : 16:9
Frame rate mode : Constant
Frame rate : 23.976 (24000/1001) FPS
Color space : YUV
Chroma subsampling : 4:2:0
Bit depth : 8 bits
Scan type : Progressive
Bits/(Pixel*Frame) : 0.267
Stream size : 9.87 GiB (98%)
Default : Yes
Forced : No
Color range : Limited
Color primaries : BT.709
Transfer characteristics : BT.709
Matrix coefficients : BT.709

Audio
ID : 2
Format : E-AC-3
Format/Info : Enhanced AC-3
Commercial name : Dolby Digital Plus
Codec ID : A_EAC3
Duration : 1 h 46 min
Bit rate mode : Constant
Bit rate : 224 kb/s
Channel(s) : 2 channels
Channel layout : L R
Sampling rate : 48.0 kHz
Frame rate : 31.250 FPS (1536 SPF)
Compression mode : Lossy
Stream size : 170 MiB (2%)
Language : English
Service kind : Complete Main
Default : Yes
Forced : No

Text
ID : 3
Format : UTF-8
Codec ID : S_TEXT/UTF8
Codec ID/Info : UTF-8 Plain Text
Duration : 1 h 44 min
Bit rate : 58 b/s
Count of elements : 1622
Stream size : 44.7 KiB (0%)
Title : English [CC](SDH)
Language : English
Default : Yes
Forced : No





1 個附件 售價 大小 下載 時間

The.Waterdance.1992.1080p.AMZN.WEBRip.DDP2.0.x264-KAIZEN.torrent 0 金幣 50.73K 315 次 1月前

#1樓
發帖時間:2019-10-15 17:16:27   |   回復數:1
911degrees
隱世仙人♂
非常感謝,謝謝分享
1月前 #2樓
游客組