conanlcg
超級版主

[2019] [歐美] [恐怖] [BD-4K] 魔童/明亮的燃燒 Brightburn.2019.INTERNAL.HDR.2160p.WEB.H265-DEFLATE 15.71GB

-->

帖子完整標題:魔童/明亮的燃燒 Brightburn.2019.INTERNAL.HDR.2160p.WEB.H265-DEFLATE 15.71GB




◎譯  名 魔童 / 明亮的燃燒 / 靈異乍現(臺) / 魔童(港)
◎片  名 Brightburn
◎年  代 2019
◎產  地 美國
◎類  別 恐怖
◎語  言 英語
◎上映日期 2019-05-24(美國)
◎IMDb評分 6.5/10 from 13989 users
◎IMDb鏈接 http://www.imdb.com/title/tt7752126
◎豆瓣評分 5.8/10 from 457 users
◎豆瓣鏈接 https://movie.douban.com/subject/27608262/
◎片  長 91分鐘
◎導  演 大衛·雅洛維斯基 David Yarovesky
◎編  劇 布萊恩·戈恩 Brian Gunn / 馬克·戈恩 Mark Gunn
◎主  演 伊麗莎白·班克斯 Elizabeth Banks
      大衛·丹曼 David Denman
      梅瑞迪斯·海格納 Meredith Hagner
      馬特·瓊斯 Matt Jones
      詹尼佛霍蘭德 Jennifer Holland
      貝基·瓦赫爾斯特羅姆 Becky Wahlstrom
      特倫斯·羅斯摩爾 Terence Rosemore
      史蒂芬·布萊克哈特 Stephen Blackehart
      史蒂夫·阿吉 Steve Agee
      杰克遜·艾頓 Jackson A. Dunn
      安妮·漢弗萊 Annie Humphrey
      克里斯蒂安·芬拉森 Christian Finlayson
      艾美·亨特 Emmie Hunter
      邁克·頓斯頓 Mike Dunston


◎標  簽 恐怖 | 驚悚 | 科幻 | 美國 | 超人 | 2019 | 靈異 | 懸疑

◎簡  介

  一對沒有孩子的鄉村夫妻從家附近的宇宙飛船里撿到了一個嬰兒撫養長大,漸漸的發現這個孩子有點與眾不同,各種超自然能力在他身上顯現出來,他披上了斗篷...但穿上斗篷的不一定都是英雄...

Video
ID : 1
Format : HEVC
Format/Info : High Efficiency Video Coding
Format profile : Main [email protected]@High
HDR format : SMPTE ST 2086, HDR10 compatible
Codec ID : V_MPEGH/ISO/HEVC
Duration : 1 h 30 min
Bit rate : 23.6 Mb/s
Width : 3 840 pixels
Height : 1 600 pixels
Original height : 2 160 pixels
Display aspect ratio : 16:9
Frame rate mode : Constant
Frame rate : 23.976 (24000/1001) FPS
Color space : YUV
Chroma subsampling : 4:2:0 (Type 2)
Bit depth : 10 bits
Bits/(Pixel*Frame) : 0.160
Stream size : 14.9 GiB (96%)
Language : English
Default : Yes
Forced : No
Color range : Limited
Color primaries : BT.2020
Transfer characteristics : PQ
Matrix coefficients : BT.2020 non-constant
Mastering display color primaries : BT.2020
Mastering display luminance : min: 0.0050 cd/m2, max: 4000 cd/m2
Maximum Content Light Level : 2145 cd/m2
Maximum Frame-Average Light Level : 385 cd/m2

Audio
ID : 2
Format : E-AC-3 JOC
Format/Info : Enhanced AC-3 with Joint Object Coding
Commercial name : Dolby Digital Plus with Dolby Atmos
Codec ID : A_EAC3
Duration : 1 h 30 min
Bit rate mode : Constant
Bit rate : 448 kb/s
Channel(s) : 6 channels
Channel layout : L R C LFE Ls Rs
Sampling rate : 48.0 kHz
Frame rate : 31.250 FPS (1536 SPF)
Compression mode : Lossy
Delay relative to video : 1 s 43 ms
Stream size : 290 MiB (2%)
Language : English
Service kind : Complete Main
Default : Yes
Forced : No
Complexity index : 16
Number of dynamic objects : 15
Bed channel count : 1 channel
Bed channel configuration : LFE

Text #1
ID : 3
Format : UTF-8
Codec ID : S_TEXT/UTF8
Codec ID/Info : UTF-8 Plain Text
Title : English
Language : English
Default : No
Forced : No

Text #2
ID : 4
Format : UTF-8
Codec ID : S_TEXT/UTF8
Codec ID/Info : UTF-8 Plain Text
Title : English (SDH)
Language : English
Default : No
Forced : No

Menu
00:00:00.000 : en:1
00:03:20.000 : en:2
00:07:04.000 : en:3
00:12:30.000 : en:4
00:17:46.000 : en:5
00:24:21.000 : en:6
00:30:27.000 : en:7
00:38:04.000 : en:8
00:43:09.000 : en:9
00:49:22.000 : en:10
00:56:50.000 : en:11
01:00:08.000 : en:12
01:05:18.000 : en:13
01:08:12.000 : en:14
01:12:16.000 : en:15
01:17:24.000 : en:16





1 個附件 售價 大小 下載 時間

Brightburn.2019.INTERNAL.HDR.2160p.WEB.H265-DEFLATE.torrent 0 金幣 79.24K 518 次 5天前

#1樓
發帖時間:2019-08-08 12:00:44   |   回復數:3
blue23
隱世仙人♂
感謝樓主分享
5天前 #2樓
911degrees
隱世仙人♂
非常感謝,謝謝分享
5天前 #3樓
liyouchai
隱世仙人♂
謝謝樓主分享資源
5天前 #4樓
游客組