conanlcg
超級版主

[2019] [歐美] [其他] [BD-Remux] 超越最佳 Above.The.Best.2019.1080p.BluRay.REMUX.AVC.DTS-HD.MA.5.1-FGT 17.69GB

-->

帖子完整標題:超越最佳 Above.The.Best.2019.1080p.BluRay.REMUX.AVC.DTS-HD.MA.5.1-FGT 17.69GB


[img]https://img1.doubanio.com/view/photo/l_ratio_poster/public/p2564533750.jpg[img]

◎譯  名 超越最佳
◎片  名 Above the Best
◎年  代 2019
◎產  地 美國
◎類  別 紀錄片 / 戰爭
◎語  言 英語
◎上映日期 2019-07-02(美國)
◎IMDb評分 5.0/10 from 96 users
◎IMDb鏈接 http://www.imdb.com/title/tt9759612
◎豆瓣評分 0/10 from 0 users
◎豆瓣鏈接 https://movie.douban.com/subject/34781684/
◎片  長 80分鐘
◎導  演 David Salzberg / Christian Tureaud
◎編  劇 Eli Baldrige / David Salzberg
◎主  演 Chris Abramo
      Naser Ahmadi
      Terry Best
      Bill Cook
      Daniel Flores
      Matt Hall
      Kristi Hickey


◎簡  介

  Army Aviators say they fly "above the best" see the lengths these heroes will go to, to protect the soldiers on the ground, and each other during intense combat in the most dangerous places on Earth.
Video
ID : 1
Format : AVC
Format/Info : Advanced Video Codec
Format profile : [email protected]
Format settings : CABAC / 4 Ref Frames
Format settings, CABAC : Yes
Format settings, Reference frames : 4 frames
Codec ID : V_MPEG4/ISO/AVC
Duration : 1 h 20 min
Bit rate mode : Constant
Bit rate : 27.9 Mb/s
Nominal bit rate : 30.0 Mb/s
Width : 1 920 pixels
Height : 1 080 pixels
Display aspect ratio : 16:9
Frame rate mode : Constant
Frame rate : 23.976 (24000/1001) FPS
Color space : YUV
Chroma subsampling : 4:2:0
Bit depth : 8 bits
Scan type : Progressive
Bits/(Pixel*Frame) : 0.561
Stream size : 15.7 GiB (89%)
Title : Above.The.Best.2019.1080p.BluRay.REMUX.AVC.DTS-HD.MA.5.1-FGT
Language : English
Default : No
Forced : No
Color range : Limited
Color primaries : BT.709
Transfer characteristics : BT.709
Matrix coefficients : BT.709

Audio
ID : 2
Format : DTS XLL
Format/Info : Digital Theater Systems
Commercial name : DTS-HD Master Audio
Codec ID : A_DTS
Duration : 1 h 20 min
Bit rate mode : Variable
Bit rate : 3 458 kb/s
Channel(s) : 6 channels
Channel layout : C L R Ls Rs LFE
Sampling rate : 48.0 kHz
Frame rate : 93.750 FPS (512 SPF)
Bit depth : 24 bits
Compression mode : Lossless
Stream size : 1.95 GiB (11%)
Title : Above.The.Best.2019.1080p.BluRay.REMUX.AVC.DTS-HD.MA.5.1-FGT
Language : English
Default : Yes
Forced : No

Text #1
ID : 3
Format : UTF-8
Codec ID : S_TEXT/UTF8
Codec ID/Info : UTF-8 Plain Text
Duration : 1 h 16 min
Bit rate : 86 b/s
Count of elements : 982
Stream size : 48.5 KiB (0%)
Title : English-SRT
Language : English
Default : Yes
Forced : No

Text #2
ID : 4
Format : PGS
Muxing mode : zlib
Codec ID : S_HDMV/PGS
Codec ID/Info : Picture based subtitle format used on BDs/HD-DVDs
Duration : 1 h 16 min
Bit rate : 68.7 kb/s
Count of elements : 2242
Stream size : 37.8 MiB (0%)
Title : English-PGS
Language : English
Default : No
Forced : No

Menu
00:00:00.000 : en:Chapter 01
00:10:17.199 : en:Chapter 02
00:21:51.184 : en:Chapter 03
00:28:06.184 : en:Chapter 04
00:39:30.743 : en:Chapter 05
00:49:19.373 : en:Chapter 06
00:59:00.703 : en:Chapter 07
01:14:46.648 : en:Chapter 08





1 個附件 售價 大小 下載 時間

Above.The.Best.2019.1080p.BluRay.REMUX.AVC.DTS-HD.MA.5.1-FGT.torrent 0 金幣 89.00K 574 次 1月前

#1樓
發帖時間:2019-08-08 11:46:12   |   回復數:4
blue23
隱世仙人♂
感謝樓主分享
1月前 #2樓
911degrees
隱世仙人♂
非常感謝,謝謝分享
1月前 #3樓
tanchoohoon
武林盟主
感謝樓主的無私分享
1月前 #4樓
liyouchai
隱世仙人♂
謝謝樓主分享資源
1月前 #5樓
游客組