conanlcg
超級版主

[2017] [歐美] [其他] [BD-720P] 尖叫視頻驚魂/電子殺人狂 Screamers.2016.720p.BluRay.x264-GETiT 3.28GB

-->

帖子完整標題:尖叫視頻驚魂/電子殺人狂 Screamers.2016.720p.BluRay.x264-GETiT 3.28GB


[img]https://img1.doubanio.com/view/photo/l_ratio_poster/public/p2432099557.jpg[img]

◎譯  名 尖叫視頻驚魂 / 電子殺人狂
◎片  名 #Screamers
◎年  代 2017
◎產  地 美國
◎類  別 懸疑 / 恐怖
◎語  言 英語
◎上映日期 2017-10-31
◎IMDb評分 4.6/10 from 757 users
◎IMDb鏈接 http://www.imdb.com/title/tt5531032
◎豆瓣評分 0/10 from 0 users
◎豆瓣鏈接 https://movie.douban.com/subject/26979286/
◎導  演 Dean Matthew Ronalds
◎編  劇 湯姆·馬洛伊 Tom Malloy / Dean Matthew Ronalds
◎主  演 湯姆·馬洛伊 Tom Malloy
      Chris Bannow
      Griffin Matthews


◎標  簽 鬼片單 | 美式恐怖 | 民間神怪吸血鬼狼人巫師等系列 | 垃圾 | 一星 | Found_Footage

◎簡  介

  When an internet company decides to investigate a series of 'Screamer' videos, they are confronted with havoc and hell they could never expect.
Video
ID : 1
Format : AVC
Format/Info : Advanced Video Codec
Format profile : [email protected]
Format settings : CABAC / 5 Ref Frames
Format settings, CABAC : Yes
Format settings, Reference frames : 5 frames
Codec ID : V_MPEG4/ISO/AVC
Duration : 1 h 22 min
Bit rate : 4 948 kb/s
Width : 1 280 pixels
Height : 720 pixels
Display aspect ratio : 16:9
Frame rate mode : Constant
Frame rate : 24.000 FPS
Color space : YUV
Chroma subsampling : 4:2:0
Bit depth : 8 bits
Scan type : Progressive
Bits/(Pixel*Frame) : 0.224
Stream size : 2.84 GiB (87%)
Writing library : x264 core 157 r2969 d4099dd
Encoding settings : cabac=1 / ref=5 / deblock=1:0:0 / analyse=0x3:0x133 / me=umh / subme=7 / psy=1 / psy_rd=1.00:0.00 / mixed_ref=1 / me_range=16 / chroma_me=1 / trellis=2 / 8x8dct=1 / cqm=0 / deadzone=21,11 / fast_pskip=0 / chroma_qp_offset=-2 / threads=9 / lookahead_threads=1 / sliced_threads=0 / nr=0 / decimate=1 / interlaced=0 / bluray_compat=0 / constrained_intra=0 / bframes=3 / b_pyramid=2 / b_adapt=1 / b_bias=0 / direct=3 / weightb=1 / open_gop=0 / weightp=2 / keyint=250 / keyint_min=24 / scenecut=40 / intra_refresh=0 / rc_lookahead=50 / rc=2pass / mbtree=1 / bitrate=4948 / ratetol=1.0 / qcomp=0.60 / qpmin=0 / qpmax=69 / qpstep=4 / cplxblur=20.0 / qblur=0.5 / ip_ratio=1.40 / aq=1:1.00
Language : English
Default : Yes
Forced : No

Audio
ID : 2
Format : DTS
Format/Info : Digital Theater Systems
Codec ID : A_DTS
Duration : 1 h 22 min
Bit rate mode : Constant
Bit rate : 768 kb/s
Channel(s) : 6 channels
Channel layout : C L R Ls Rs LFE
Sampling rate : 48.0 kHz
Frame rate : 93.750 FPS (512 SPF)
Bit depth : 24 bits
Compression mode : Lossy
Stream size : 451 MiB (13%)
Title : dts
Language : English
Default : Yes
Forced : No

Menu
00:00:00.000 : en:00:00:00.000
00:06:36.542 : en:00:06:36.542
00:13:36.042 : en:00:13:36.042
00:21:38.375 : en:00:21:38.375
00:27:26.333 : en:00:27:26.333
00:32:02.167 : en:00:32:02.167
00:40:57.167 : en:00:40:57.167
00:48:51.708 : en:00:48:51.708
00:59:14.042 : en:00:59:14.042
01:05:13.625 : en:01:05:13.625
01:14:12.333 : en:01:14:12.333
01:19:45.500 : en:01:19:45.500





1 個附件 售價 大小 下載 時間

Screamers.2016.720p.BluRay.x264-GETiT.torrent 0 金幣 33.40K 252 次 5天前

#1樓
發帖時間:2019-08-08 11:39:45   |   回復數:3
blue23
隱世仙人♂
感謝樓主分享
5天前 #2樓
911degrees
隱世仙人♂
非常感謝,謝謝分享
5天前 #3樓
liyouchai
隱世仙人♂
謝謝樓主分享資源
4天前 #4樓
游客組