conanlcg
超級版主

[更 早] [歐美] [喜劇] [BD-1080P] 輕松生活 Easy.Living.1937.1080p.BluRay.x264-PSYCHD 8.75GB

-->

帖子完整標題:輕松生活 Easy.Living.1937.1080p.BluRay.x264-PSYCHD 8.75GB


[img]https://img1.doubanio.com/view/photo/l_ratio_poster/public/p2363030291.jpg[img]

◎譯  名 輕松生活
◎片  名 Easy Living
◎年  代 1937
◎產  地 美國
◎類  別 喜劇 / 愛情
◎語  言 英語
◎上映日期 1937-07-16
◎IMDb評分 7.7/10 from 2616 users
◎IMDb鏈接 http://www.imdb.com/title/tt0028816
◎豆瓣評分 7.5/10 from 65 users
◎豆瓣鏈接 https://movie.douban.com/subject/3036550/
◎片  長 88 分鐘
◎導  演 米切爾·萊森 Mitchell Leisen
◎編  劇 普萊斯頓·斯特奇斯 Preston Sturges
◎主  演 琪恩·亞瑟 Jean Arthur
      Edward Arnold
      Ray Milland


◎標  簽 美國 | 1930s | 美國電影 | 喜劇 | 神經喜劇 | PrestonSturges | Mitchell_Leisen | JeanArthur

◎簡  介

  暫無相關劇情介紹
Video
ID : 1
Format : AVC
Format/Info : Advanced Video Codec
Format profile : [email protected]
Format settings : CABAC / 5 Ref Frames
Format settings, CABAC : Yes
Format settings, Reference frames : 5 frames
Codec ID : V_MPEG4/ISO/AVC
Duration : 1 h 28 min
Bit rate : 12.7 Mb/s
Width : 1 456 pixels
Height : 1 080 pixels
Display aspect ratio : 4:3
Frame rate mode : Constant
Frame rate : 23.976 (24000/1001) FPS
Color space : YUV
Chroma subsampling : 4:2:0
Bit depth : 8 bits
Scan type : Progressive
Bits/(Pixel*Frame) : 0.337
Stream size : 7.64 GiB (87%)
Writing library : x264 core 158 r2984 3759fcb
Encoding settings : cabac=1 / ref=5 / deblock=1:-3:-3 / analyse=0x3:0x113 / me=umh / subme=8 / psy=1 / psy_rd=1.10:0.00 / mixed_ref=1 / me_range=32 / chroma_me=1 / trellis=2 / 8x8dct=1 / cqm=0 / deadzone=21,11 / fast_pskip=1 / chroma_qp_offset=-2 / threads=34 / lookahead_threads=5 / sliced_threads=0 / nr=0 / decimate=1 / interlaced=0 / bluray_compat=0 / constrained_intra=0 / bframes=3 / b_pyramid=2 / b_adapt=2 / b_bias=0 / direct=3 / weightb=1 / open_gop=0 / weightp=2 / keyint=240 / keyint_min=24 / scenecut=40 / intra_refresh=0 / rc_lookahead=50 / rc=2pass / mbtree=1 / bitrate=12708 / ratetol=1.0 / qcomp=0.60 / qpmin=0 / qpmax=69 / qpstep=4 / cplxblur=20.0 / qblur=0.5 / ip_ratio=1.40 / aq=3:0.65
Default : Yes
Forced : No
Statistics Tags Issue : no_variable_data 1970-01-01 00:00:00 / no_variable_data 2010-02-22 21:41:29
FromStats_BitRate : 12708788
FromStats_Duration : 01:28:02.861000000
FromStats_FrameCount : 126662
FromStats_StreamSize : 8392345395

Audio
ID : 2
Format : DTS
Format/Info : Digital Theater Systems
Codec ID : A_DTS
Duration : 1 h 28 min
Bit rate mode : Constant
Bit rate : 1 509 kb/s
Channel(s) : 2 channels
Channel layout : L R
Sampling rate : 48.0 kHz
Frame rate : 93.750 FPS (512 SPF)
Bit depth : 24 bits
Compression mode : Lossy
Stream size : 950 MiB (11%)
Language : English
Default : Yes
Forced : No
Statistics Tags Issue : no_variable_data 1970-01-01 00:00:00 / no_variable_data 2010-02-22 21:41:29
FromStats_BitRate : 1509000
FromStats_Duration : 01:28:02.880000000
FromStats_FrameCount : 495270
FromStats_StreamSize : 996483240

Text #1
ID : 3
Format : UTF-8
Codec ID : S_TEXT/UTF8
Codec ID/Info : UTF-8 Plain Text
Language : English
Default : No
Forced : No
Statistics Tags Issue : no_variable_data 1970-01-01 00:00:00 / no_variable_data 2010-02-22 21:41:29
FromStats_BitRate : 84
FromStats_Duration : 01:25:48.727000000
FromStats_FrameCount : 1449
FromStats_StreamSize : 54637

Text #2
ID : 4
Format : UTF-8
Codec ID : S_TEXT/UTF8
Codec ID/Info : UTF-8 Plain Text
Title : SDH
Language : English
Default : No
Forced : No
Statistics Tags Issue : no_variable_data 1970-01-01 00:00:00 / no_variable_data 2010-02-22 21:41:29
FromStats_BitRate : 87
FromStats_Duration : 01:25:52.355000000
FromStats_FrameCount : 1524
FromStats_StreamSize : 56265

Menu
00:00:00.000 : en:Chapter 01
00:08:25.715 : en:Chapter 02
00:19:31.964 : en:Chapter 03
00:36:32.942 : en:Chapter 04
00:47:01.653 : en:Chapter 05
00:57:07.258 : en:Chapter 06
01:05:35.975 : en:Chapter 07
01:18:19.029 : en:Chapter 08





1 個附件 售價 大小 下載 時間

Easy.Living.1937.1080p.BluRay.x264-PSYCHD.torrent 0 金幣 44.63K 203 次 10天前

#1樓
發帖時間:2019-08-08 11:15:55   |   回復數:3
blue23
隱世仙人♂
感謝樓主分享
10天前 #2樓
911degrees
隱世仙人♂
非常感謝,謝謝分享
10天前 #3樓
liyouchai
隱世仙人♂
謝謝樓主分享資源
10天前 #4樓
游客組