conanlcg
超級版主

[更 早] [其他] [恐怖] [BD-1080P] 僵尸城市 City.Of.The.Living.Dead.1980.REMASTERED.1080p.BluRay.x264-CREEPSHOW 8.74GB

-->

帖子完整標題:僵尸城市 City.Of.The.Living.Dead.1980.REMASTERED.1080p.BluRay.x264-CREEPSHOW 8.74GB


[img]https://img1.doubanio.com/view/photo/l_ratio_poster/public/p2357402640.jpg[img]

◎譯  名 僵尸城市 / City of the Living Dead / Frayeurs / The Gates of Hell / 活死人之城
◎片  名 Paura nella città dei morti viventi
◎年  代 1980
◎產  地 意大利
◎類  別 恐怖
◎語  言 英語 / 意大利語
◎上映日期 1980-08-11
◎IMDb評分 6.3/10 from 14134 users
◎IMDb鏈接 http://www.imdb.com/title/tt0081318
◎豆瓣評分 6.4/10 from 380 users
◎豆瓣鏈接 https://movie.douban.com/subject/2181137/
◎片  長 93 分鐘
◎導  演 盧西奧·弗爾茲 Lucio Fulci
◎編  劇 盧喬·富爾奇 Lucio Fulci
◎主  演 克里斯托佛·喬治 Christopher George
      Catriona MacColl
      Carlo De Mejo
      Antonella Interlenghi
      Giovanni Lombardo Radice
      Daniela Doria
      Luca Venantini


◎標  簽 恐怖 | 意大利 | 僵尸 | 喪尸 | 盧西奧·弗爾茲 | 1980 | LucioFulci | 意大利電影

◎簡  介

  美國邊陲的新英格蘭小鎮上,一個名叫托馬斯(Fabrizio Jovine 飾)的神父上吊自殺,他的死導致地獄之門洞開。居住在紐約的靈媒瑪麗通過感應看到了這一切,她深知地獄之門打開的恐怖后果,慌亂之中竟摔下樓去。警察認定瑪麗已經死亡,第二天將其下葬。名叫彼得?貝爾(Chirstopher George 飾)偶然經過公墓,聽到墓地中傳來的呼叫,終于將瑪麗解救出來。
  彼得從這個靈媒口中得知,地獄之門是魔鬼進入人間的必行之路,如果不及時關閉,萬圣節那天將有成千上萬的幽靈和鬼魂充斥人間,為害世人。為了保護無辜的生命,彼得和瑪麗共同前往地獄之門的所在地……
Video
ID : 1
Format : AVC
Format/Info : Advanced Video Codec
Format profile : [email protected]
Format settings : CABAC / 4 Ref Frames
Format settings, CABAC : Yes
Format settings, ReFrames : 4 frames
Codec ID : V_MPEG4/ISO/AVC
Duration : 1 h 32 min
Bit rate : 11.9 Mb/s
Width : 1 920 pixels
Height : 1 040 pixels
Display aspect ratio : 1.85:1
Frame rate mode : Constant
Frame rate : 23.976 (24000/1001) FPS
Color space : YUV
Chroma subsampling : 4:2:0
Bit depth : 8 bits
Scan type : Progressive
Bits/(Pixel*Frame) : 0.250
Stream size : 7.74 GiB (89%)
Writing library : x264 core 157 r2935 545de2f
Encoding settings : cabac=1 / ref=4 / deblock=1:-2:-2 / analyse=0x3:0x133 / me=umh / subme=9 / psy=1 / psy_rd=1.00:0.00 / mixed_ref=1 / me_range=16 / chroma_me=1 / trellis=2 / 8x8dct=1 / cqm=0 / deadzone=21,11 / fast_pskip=0 / chroma_qp_offset=-2 / threads=12 / lookahead_threads=1 / sliced_threads=0 / nr=0 / decimate=1 / interlaced=0 / bluray_compat=0 / constrained_intra=0 / bframes=3 / b_pyramid=2 / b_adapt=2 / b_bias=0 / direct=3 / weightb=1 / open_gop=0 / weightp=2 / keyint=240 / keyint_min=23 / scenecut=40 / intra_refresh=0 / rc_lookahead=50 / rc=2pass / mbtree=1 / bitrate=11948 / ratetol=1.0 / qcomp=0.60 / qpmin=0 / qpmax=69 / qpstep=4 / cplxblur=20.0 / qblur=0.5 / vbv_maxrate=62500 / vbv_bufsize=78125 / nal_hrd=none / filler=0 / ip_ratio=1.40 / aq=1:0.70
Default : Yes
Forced : No

Audio #1
ID : 2
Format : DTS
Format/Info : Digital Theater Systems
Codec ID : A_DTS
Duration : 1 h 32 min
Bit rate mode : Constant
Bit rate : 768 kb/s
Channel(s) : 1 channel
Channel layout : C
Sampling rate : 48.0 kHz
Frame rate : 93.750 FPS (512 SPF)
Bit depth : 24 bits
Compression mode : Lossy
Stream size : 510 MiB (6%)
Language : Italian
Default : Yes
Forced : No

Audio #2
ID : 3
Format : DTS
Format/Info : Digital Theater Systems
Codec ID : A_DTS
Duration : 1 h 32 min
Bit rate mode : Constant
Bit rate : 768 kb/s
Channel(s) : 6 channels
Channel layout : C L R Ls Rs LFE
Sampling rate : 48.0 kHz
Frame rate : 93.750 FPS (512 SPF)
Bit depth : 24 bits
Compression mode : Lossy
Stream size : 510 MiB (6%)
Language : English
Default : No
Forced : No

Text
ID : 4
Format : UTF-8
Codec ID : S_TEXT/UTF8
Codec ID/Info : UTF-8 Plain Text
Duration : 1 h 31 min
Bit rate : 40 b/s
Count of elements : 881
Stream size : 27.2 KiB (0%)
Language : English
Default : Yes
Forced : No

Menu
00:00:00.000 : en:00:00:00.000
00:08:49.404 : en:00:08:49.404
00:17:15.618 : en:00:17:15.618
00:24:38.644 : en:00:24:38.644
00:32:52.512 : en:00:32:52.512
00:39:14.519 : en:00:39:14.519
00:45:55.586 : en:00:45:55.586
00:55:05.052 : en:00:55:05.052
01:00:18.114 : en:01:00:18.114
01:08:12.255 : en:01:08:12.255
01:16:25.581 : en:01:16:25.581
01:24:13.757 : en:01:24:13.757





1 個附件 售價 大小 下載 時間

City.Of.The.Living.Dead.1980.REMASTERED.1080p.BluRay.x264-CREEPSHOW.torrent 0 金幣 88.00K 287 次 5天前

#1樓
發帖時間:2019-08-08 11:13:59   |   回復數:3
blue23
隱世仙人♂
感謝樓主分享
5天前 #2樓
911degrees
隱世仙人♂
非常感謝,謝謝分享
5天前 #3樓
liyouchai
隱世仙人♂
謝謝樓主分享資源
4天前 #4樓
游客組