conanlcg
超級版主

[更 早] [香港] [喜劇] [BD-1080P] A計劃續集 Project.A.2.1987.1080p.BluRay.x264-USURY 9.84GB

-->

帖子完整標題:A計劃續集 Project.A.2.1987.1080p.BluRay.x264-USURY 9.84GB


[img]https://img1.doubanio.com/view/photo/l_ratio_poster/public/p2204526758.jpg[img]

◎譯  名 A計劃續集 / Project A 2 / Project A II
◎片  名 A計劃續集
◎年  代 1987
◎產  地 香港
◎類  別 喜劇 / 動作 / 犯罪
◎語  言 粵語
◎上映日期 1987-07-25(日本) / 1987-08-19(香港)
◎IMDb評分 7.1/10 from 8277 users
◎IMDb鏈接 http://www.imdb.com/title/tt0092501
◎豆瓣評分 7.6/10 from 42234 users
◎豆瓣鏈接 https://movie.douban.com/subject/1299120/
◎片  長 106分鐘
◎導  演 成龍 Jackie Chan
◎編  劇 成龍 Jackie Chan / 鄧景生 Edward Tang
◎主  演 成龍 Jackie Chan
      張曼玉 Maggie Cheung
      關之琳 Rosamund Kwan
      劉嘉玲 Carina Lau
      林威 Wai Lam
      董驃 Bill Tung
      關海山 Hoi-Shan Kwan
      呂良偉 Ray Lui
      何家勁 Kenny Ho
      鐘鎮濤 Kenny Bee
      許冠英 Ricky Hui
      陳友 Anthony Chan
      盧惠光 Ken Lo
      陳惠敏 Wai-Man Chan
      呂方 Fong Liu
      簡慧真 Regina Kent
      林德祿 David Lam
      火星 Mars
      李健生 Chris Lee
      林國斌 Ben Lam
      黃新 Sun Wong
      黃曼凝 Isabella Wong
      朱鐵和 Tiet Wo Chu
      劉兆銘 Lau Siu Ming
      韓義生 Yee Sang Hon
      Bozidar Smiljanic
      太保 Po Tai
      王龍威 Lung Wei Wang


◎標  簽 成龍 | 動作 | 香港 | 喜劇 | 香港電影 | 張曼玉 | 1987 | 劉嘉玲

◎簡  介

  清朝末年的香港,在上、中、西環有“鎮三環”之稱的幫辦暗中勾結西環惡霸勾心虎,西環治安一時烏煙瘴氣。警官馬如龍(成龍)奉命接管西環后,迅速將勾心虎拘捕人獄,招來“鎮三環”的怨恨。
  彼時內地革命風云翻涌,革命黨人來港宣傳,并計劃營救被捕同志。為將革命黨人一網打盡,清廷派遣密使聯絡鎮三環,馬如龍結識白影紅、瑩瑩、珊珊等革命黨人(張曼玉、關之琳、劉嘉玲等)后也被卷入斗爭漩渦,而同時,一群四肢發達頭腦簡單的海盜正在伺機向馬如龍報仇。

◎獲獎情況

  第24屆臺北金馬影展(1987)
  金馬獎 最佳劇情片(提名)
  金馬獎 最佳導演(提名) 成龍
  金馬獎 最佳剪輯(提名) 張耀宗

  第7屆香港電影金像獎(1988)
  最佳剪接(提名) 張耀宗
  最佳動作設計
Video
ID : 1
Format : AVC
Format/Info : Advanced Video Codec
Format profile : [email protected]
Format settings : CABAC / 5 Ref Frames
Format settings, CABAC : Yes
Format settings, ReFrames : 5 frames
Codec ID : V_MPEG4/ISO/AVC
Duration : 1 h 46 min
Bit rate : 11.7 Mb/s
Width : 1 920 pixels
Height : 808 pixels
Display aspect ratio : 2.40:1
Frame rate mode : Constant
Frame rate : 23.976 (24000/1001) FPS
Color space : YUV
Chroma subsampling : 4:2:0
Bit depth : 8 bits
Scan type : Progressive
Bits/(Pixel*Frame) : 0.314
Stream size : 8.69 GiB (88%)
Writing library : x264 core 155 r2901 7d0ff22
Encoding settings : cabac=1 / ref=5 / deblock=1:-3:-3 / analyse=0x3:0x133 / me=umh / subme=9 / psy=1 / psy_rd=1.00:0.00 / mixed_ref=1 / me_range=16 / chroma_me=1 / trellis=2 / 8x8dct=1 / cqm=0 / deadzone=21,11 / fast_pskip=0 / chroma_qp_offset=-2 / threads=25 / lookahead_threads=2 / sliced_threads=0 / nr=0 / decimate=1 / interlaced=0 / bluray_compat=0 / constrained_intra=0 / bframes=3 / b_pyramid=2 / b_adapt=1 / b_bias=0 / direct=3 / weightb=1 / open_gop=0 / weightp=2 / keyint=240 / keyint_min=24 / scenecut=40 / intra_refresh=0 / rc_lookahead=50 / rc=2pass / mbtree=1 / bitrate=11677 / ratetol=1.0 / qcomp=0.60 / qpmin=0 / qpmax=69 / qpstep=4 / cplxblur=20.0 / qblur=0.5 / ip_ratio=1.40 / aq=1:1.00
Language : English
Default : Yes
Forced : No

Audio #1
ID : 2
Format : DTS
Format/Info : Digital Theater Systems
Codec ID : A_DTS
Duration : 1 h 46 min
Bit rate mode : Constant
Bit rate : 768 kb/s
Channel(s) : 6 channels
Channel layout : C L R Ls Rs LFE
Sampling rate : 48.0 kHz
Frame rate : 93.750 FPS (512 SPF)
Bit depth : 24 bits
Compression mode : Lossy
Stream size : 585 MiB (6%)
Language : Chinese
Default : Yes
Forced : No

Audio #2
ID : 3
Format : DTS
Format/Info : Digital Theater Systems
Codec ID : A_DTS
Duration : 1 h 46 min
Bit rate mode : Constant
Bit rate : 768 kb/s
Channel(s) : 6 channels
Channel layout : C L R Ls Rs LFE
Sampling rate : 48.0 kHz
Frame rate : 93.750 FPS (512 SPF)
Bit depth : 24 bits
Compression mode : Lossy
Stream size : 585 MiB (6%)
Language : English
Default : No
Forced : No

Text
ID : 4
Format : UTF-8
Codec ID : S_TEXT/UTF8
Codec ID/Info : UTF-8 Plain Text
Duration : 1 h 44 min
Bit rate : 70 b/s
Count of elements : 1197
Stream size : 53.7 KiB (0%)
Title : English
Language : English
Default : Yes
Forced : Yes

Menu
00:00:00.000 : en:00:00:00.000
00:06:13.957 : en:00:06:13.957
00:12:46.391 : en:00:12:46.391
00:18:52.381 : en:00:18:52.381
00:22:29.932 : en:00:22:29.932
00:25:26.233 : en:00:25:26.233
00:28:35.255 : en:00:28:35.255
00:35:38.136 : en:00:35:38.136
00:38:13.374 : en:00:38:13.374
00:41:23.481 : en:00:41:23.481
00:45:02.742 : en:00:45:02.742
00:51:24.832 : en:00:51:24.832
00:55:15.354 : en:00:55:15.354
00:58:06.692 : en:00:58:06.692
01:01:27.809 : en:01:01:27.809
01:04:44.255 : en:01:04:44.255
01:08:10.837 : en:01:08:10.837
01:10:46.534 : en:01:10:46.534
01:17:33.107 : en:01:17:33.107
01:22:02.167 : en:01:22:02.167
01:27:17.399 : en:01:27:17.399
01:33:45.036 : en:01:33:45.036
01:41:19.907 : en:01:41:19.907





1 個附件 售價 大小 下載 時間

Project.A.2.1987.1080p.BluRay.x264-USURY.torrent 0 金幣 98.95K 1638 次 9天前

#1樓
發帖時間:2019-08-08 11:03:49   |   回復數:5
blue23
隱世仙人♂
感謝樓主分享
9天前 #2樓
911degrees
隱世仙人♂
非常感謝,謝謝分享
9天前 #3樓
jokingcheung
一代宗師
謝謝分享
9天前 #4樓
tanchoohoon
武林盟主
感謝樓主的無私分享
9天前 #5樓
liyouchai
隱世仙人♂
謝謝樓主分享資源
9天前 #6樓
游客組