conanlcg
超級版主

[2014] [韓國] [劇情] [BD-1080P] 鳴梁海戰 The.Admiral.Roaring.Currents.2014.LIMITED.1080p.BluRay.x264-GECKOS 10.93GB

-->

帖子完整標題:鳴梁海戰 The.Admiral.Roaring.Currents.2014.LIMITED.1080p.BluRay.x264-GECKOS 10.93GB


[img]https://img1.doubanio.com/view/photo/l_ratio_poster/public/p2213003660.jpg[img]

◎譯  名 鳴梁海戰 / Battle of Myeongryang / The Admiral: Roaring Currents / 海戰鳴梁 / 鳴梁 / 鳴梁:怒海交鋒(臺) / 鳴梁:旋風之海
◎片  名 ??
◎年  代 2014
◎產  地 韓國
◎類  別 劇情 / 動作 / 傳記 / 戰爭
◎語  言 韓語
◎上映日期 2014-07-30(韓國) / 2014-12-12(中國大陸)
◎IMDb評分 7.1/10 from 8968 users
◎IMDb鏈接 http://www.imdb.com/title/tt3541262
◎豆瓣評分 7.1/10 from 41271 users
◎豆瓣鏈接 https://movie.douban.com/subject/7065161/
◎片  長 109分鐘(中國大陸)
◎導  演 金韓民 Han-min Kim
◎編  劇 全哲洪 Cheol-Hong Jeon / 金韓民 Han-min Kim
◎主  演 崔岷植 Min-sik Choi
      柳承龍 Seung-yong Ryoo
      趙震雄 Jin-ung Jo
      晉久 Goo Jin
      李貞賢 Jung-hyun Lee
      權律 Se-in Kwan
      大谷慶彥 Otani Ryohei
      李成俊 Seung-joon Lee
      金明坤 Myung-gon Kim
      魯敏宇 Min-Woo No
      金泰勛 Tae-hoon Kim
      樸寶劍 Bo-Gum Park


◎標  簽 戰爭 | 韓國 | 歷史 | 韓國電影 | 崔岷植 | 2014 | 劇情 | 柳承龍

◎簡  介

  1597年的朝鮮王朝危機四伏,朝鮮海軍主力隨著大將李舜臣(崔岷植 飾)被貶而遭受巨大打擊,軍紀潰散,只剩少量軍艦。而倭寇伺機派出脅坂安治(趙震雄 飾),協同令人聞風喪膽的“海賊王”來島通總(柳承龍 飾)的海盜軍共同出擊,勢必攻克漢陽。危急關頭,李舜臣力排眾議,決定率領僅 剩的十幾艘軍艦前去鳴梁海峽迎戰倭寇。李舜臣先是派遣部下任俊永(晉久 飾)去敵方匯合臥底俊沙(大谷慶彥 飾),又重振軍心,以“勇者生,畏者死”的氣概,號召與倭寇決一死戰。 決戰開始,李舜臣身先士卒,死守血島,擊潰“海賊王”好幾撥先遣軍,關鍵時刻任俊永的啞妻(李貞賢 飾)讀懂他的唇語發揮作用,使得李舜臣將船成功獲救。最終軍民協力,重創了日本艦隊,創造了世界海戰史上一次以少勝多的著名戰役。

◎獲獎情況

  第35屆韓國電影青龍獎(2014)
  最佳影片(提名)
  最佳導演 金韓民
  最佳男主角(提名) 崔岷植
  最佳攝影(提名)
  最佳美術(提名)
  最佳配樂(提名)
  最佳照明
  技術獎(提名)
  最受歡迎電影獎

  第9屆亞洲電影大獎(2015)
  最佳男主角(提名) 崔岷植

  第51屆百想藝術大賞(2015)
  電影類 最佳影片(提名)
  電影類 最佳男主角(提名) 崔岷植
  電影類 最佳女配角(提名) 李貞賢

  第51屆韓國電影大鐘獎(2014)
  最佳影片(提名)
  最佳導演(提名) 金韓民
  最佳男主角(提名) 崔岷植
  最佳攝影(提名)
  最佳美術(提名)
  最佳音樂(提名)
  最佳服裝(提名)
  最佳技術獎(提名)
  最佳照明(提名)
Video
ID : 1
Format : AVC
Format/Info : Advanced Video Codec
Format profile : [email protected]
Format settings, CABAC : Yes
Format settings, ReFrames : 5 frames
Codec ID : V_MPEG4/ISO/AVC
Duration : 2h 8mn
Bit rate : 9 136 Kbps
Width : 1 920 pixels
Height : 800 pixels
Display aspect ratio : 2.40:1
Frame rate mode : Constant
Frame rate : 23.976 fps
Color space : YUV
Chroma subsampling : 4:2:0
Bit depth : 8 bits
Scan type : Progressive
Bits/(Pixel*Frame) : 0.248
Stream size : 7.99 GiB (73%)
Writing library : x264 core 144 r2525 40bb568
Encoding settings : cabac=1 / ref=5 / deblock=1:0:0 / analyse=0x3:0x133 / me=umh / subme=7 / psy=1 / psy_rd=1.00:0.00 / mixed_ref=1 / me_range=16 / chroma_me=1 / trellis=1 / 8x8dct=1 / cqm=0 / deadzone=21,11 / fast_pskip=0 / chroma_qp_offset=-2 / threads=60 / lookahead_threads=6 / sliced_threads=0 / nr=0 / decimate=1 / interlaced=0 / bluray_compat=0 / constrained_intra=0 / bframes=3 / b_pyramid=2 / b_adapt=1 / b_bias=0 / direct=1 / weightb=1 / open_gop=0 / weightp=2 / keyint=250 / keyint_min=23 / scenecut=40 / intra_refresh=0 / rc_lookahead=40 / rc=2pass / mbtree=1 / bitrate=9136 / ratetol=1.0 / qcomp=0.60 / qpmin=0 / qpmax=69 / qpstep=4 / cplxblur=20.0 / qblur=0.5 / ip_ratio=1.40 / aq=1:1.00
Language : Korean
Default : Yes
Forced : No

Audio #1
ID : 2
Format : DTS
Format/Info : Digital Theater Systems
Mode : 16
Format settings, Endianness : Big
Codec ID : A_DTS
Duration : 2h 8mn
Bit rate mode : Constant
Bit rate : 1 509 Kbps
Channel(s) : 6 channels
Channel positions : Front: L C R, Side: L R, LFE
Sampling rate : 48.0 KHz
Bit depth : 24 bits
Compression mode : Lossy
Stream size : 1.36 GiB (12%)
Language : English
Default : No
Forced : No

Audio #2
ID : 3
Format : DTS
Format/Info : Digital Theater Systems
Mode : 16
Format settings, Endianness : Big
Codec ID : A_DTS
Duration : 2h 8mn
Bit rate mode : Constant
Bit rate : 1 509 Kbps
Channel(s) : 6 channels
Channel positions : Front: L C R, Side: L R, LFE
Sampling rate : 48.0 KHz
Bit depth : 24 bits
Compression mode : Lossy
Stream size : 1.36 GiB (12%)
Language : Korean
Default : Yes
Forced : Yes

Text #1
ID : 4
Format : UTF-8
Codec ID : S_TEXT/UTF8
Codec ID/Info : UTF-8 Plain Text
Title : English-Forced
Language : English
Default : Yes
Forced : Yes

Text #2
ID : 5
Format : UTF-8
Codec ID : S_TEXT/UTF8
Codec ID/Info : UTF-8 Plain Text
Title : English
Language : English
Default : No
Forced : No

Menu
00:00:00.000 : en:00:00:00.000
00:08:19.040 : en:00:08:19.040
00:14:18.358 : en:00:14:18.358
00:19:24.121 : en:00:19:24.121
00:27:09.670 : en:00:27:09.670
00:33:54.282 : en:00:33:54.282
00:45:33.606 : en:00:45:33.606
00:51:59.199 : en:00:51:59.199
01:03:22.966 : en:01:03:22.966
01:16:38.427 : en:01:16:38.427
01:23:13.071 : en:01:23:13.071
01:26:46.827 : en:01:26:46.827
01:38:14.806 : en:01:38:14.806
01:43:33.833 : en:01:43:33.833
01:50:34.878 : en:01:50:34.878
01:56:34.196 : en:01:56:34.196
02:01:23.860 : en:02:01:23.860





1 個附件 售價 大小 下載 時間

The.Admiral.Roaring.Currents.2014.LIMITED.1080p.BluRay.x264-GECKOS.torrent 0 金幣 55.52K 721 次 6天前

#1樓
發帖時間:2019-08-08 11:01:54   |   回復數:5
blue23
隱世仙人♂
感謝樓主分享
6天前 #2樓
lugangmail
無名小卒
有點無恥,棒子貪天之功,沒有明朝,沒有鄧子龍,就被日本滅了。
6天前 #3樓
911degrees
隱世仙人♂
非常感謝,謝謝分享
6天前 #4樓
jokingcheung
一代宗師
謝謝分享
6天前 #5樓
liyouchai
隱世仙人♂
謝謝樓主分享資源
6天前 #6樓
游客組