conanlcg
超級版主

[更 早] [日本] [動作] [BD-1080P] 龍珠Z劇場版8:燃燒吧!!熱戰·烈戰·超激戰 Dragon.Ball.Z.Broly.The.Legendary.Super.Saiyan.1993.REPAC

-->

帖子完整標題:龍珠Z劇場版8:燃燒吧!!熱戰·烈戰·超激戰 Dragon.Ball.Z.Broly.The.Legendary.Super.Saiyan.1993.REPACK.1080p.BluRay.x264-AERO 4.37GB


[img]https://img1.doubanio.com/view/photo/l_ratio_poster/public/p2561565915.jpg[img]

◎譯  名 龍珠Z劇場版8:燃燒吧!!熱戰·烈戰·超激戰 / Dragon Ball Z - Broly - The Legendary Super Saiyan / 龍珠Z:燃燒吧!熱戰!
◎片  名 ドラゴンボール Z 劇場版: 燃えつきろ !!熱戦?烈戦?超激戦
◎年  代 1993
◎產  地 日本
◎類  別 動作 / 動畫
◎語  言 日語
◎上映日期 1993-03-06(日本)
◎IMDb評分 7.5/10 from 8686 users
◎IMDb鏈接 http://www.imdb.com/title/tt0142242
◎豆瓣評分 7.2/10 from 1559 users
◎豆瓣鏈接 https://movie.douban.com/subject/3089298/
◎片  長 72分鐘
◎導  演 山內重保 Shigeyasu Yamauchi
◎編  劇 小山高生 Takao Koyama / 鳥山明 Akira Toriyama
◎主  演 野澤雅子 Masako Nozawa
      古川登志夫 Toshio Furukawa
      田中真弓 Mayumi Tanaka
      草尾毅 Takeshi Kusao
      堀川亮 Ry? Horikawa
      鶴廣美 Hiromi Tsuru
      宮內幸平 K?hei Miyauchi
      渡邊菜生子 Naoko Watanabe
      龍田直樹 Naoki Tatsuta
      江森浩子 Hiroko Emori
      川津泰彥 Yasuhiko Kawazu
      神奈延年 Nobutoshi Canna
      佐藤正治 Masaharu Sato
      島田敏 Bin Shimada
      家弓家正 Iemasa Kayumi
      八奈見乘兒 J?ji Yanami


◎標  簽 日本 | 動畫 | 龍珠 | 劇場版 | 鳥山明 | 日本動畫 | 1993 | 動漫

◎簡  介

  賽亞人余黨帕拉格斯帶著他的兒子布羅利大肆破壞南銀河,最終父子二人降臨地球,請求貝吉塔登基成為新貝吉塔行星的國王。利令智昏的貝吉塔相信了他的請求,為了建立宇宙最強大的帝國,他隨帕拉格斯父子前往新貝吉塔行星。
  對此疑竇叢生的特蘭克斯、悟飯等人為探明真相,隨之前往,最終發現帕拉格斯欲借貝吉塔的力量統治宇宙的野心。一場大戰在所難免。然而令龍珠戰士始料未及的是,外表瘦小軟弱的布羅利體內竟隱藏著極為強大的力量。他所變身的超級賽亞人成為了每一個龍珠戰士的噩夢。銀河系危在旦夕……
Video
ID : 1
Format : AVC
Format/Info : Advanced Video Codec
Format profile : [email protected]
Format settings : CABAC / 4 Ref Frames
Format settings, CABAC : Yes
Format settings, Reference frames : 4 frames
Muxing mode : Header stripping
Codec ID : V_MPEG4/ISO/AVC
Duration : 1 h 11 min
Bit rate : 7 677 kb/s
Width : 1 920 pixels
Height : 1 080 pixels
Display aspect ratio : 16:9
Frame rate mode : Constant
Frame rate : 23.976 (24000/1001) FPS
Color space : YUV
Chroma subsampling : 4:2:0
Bit depth : 8 bits
Scan type : Progressive
Bits/(Pixel*Frame) : 0.154
Stream size : 3.77 GiB (86%)
Writing library : x264 core 105 r1724 b02df7b
Encoding settings : cabac=1 / ref=4 / deblock=1:0:0 / analyse=0x3:0x133 / me=umh / subme=7 / psy=1 / psy_rd=1.00:0.00 / mixed_ref=1 / me_range=16 / chroma_me=1 / trellis=1 / 8x8dct=1 / cqm=0 / deadzone=21,11 / fast_pskip=0 / chroma_qp_offset=-2 / threads=6 / sliced_threads=0 / nr=0 / decimate=1 / interlaced=0 / constrained_intra=0 / bframes=3 / b_pyramid=2 / b_adapt=1 / b_bias=0 / direct=1 / weightb=1 / open_gop=0 / weightp=2 / keyint=250 / keyint_min=23 / scenecut=40 / intra_refresh=0 / rc_lookahead=40 / rc=2pass / mbtree=1 / bitrate=7677 / ratetol=1.0 / qcomp=0.60 / qpmin=10 / qpmax=51 / qpstep=4 / cplxblur=20.0 / qblur=0.5 / ip_ratio=1.40 / aq=1:1.00
Language : English
Default : Yes
Forced : No

Audio #1
ID : 2
Format : AC-3
Format/Info : Audio Coding 3
Commercial name : Dolby Digital
Muxing mode : Header stripping
Codec ID : A_AC3
Duration : 1 h 11 min
Bit rate mode : Constant
Bit rate : 640 kb/s
Channel(s) : 6 channels
Channel layout : L R C LFE Ls Rs
Sampling rate : 48.0 kHz
Frame rate : 31.250 FPS (1536 SPF)
Bit depth : 16 bits
Compression mode : Lossy
Stream size : 329 MiB (7%)
Language : English
Service kind : Complete Main
Default : No
Forced : No

Audio #2
ID : 3
Format : DTS
Format/Info : Digital Theater Systems
Muxing mode : Header stripping
Codec ID : A_DTS
Duration : 1 h 11 min
Bit rate mode : Constant
Bit rate : 384 kb/s
Channel(s) : 2 channels
Channel layout : L R
Sampling rate : 48.0 kHz
Frame rate : 93.750 FPS (512 SPF)
Bit depth : 24 bits
Compression mode : Lossy
Stream size : 198 MiB (4%)
Language : Japanese
Default : Yes
Forced : No

Text
ID : 4
Format : UTF-8
Codec ID : S_TEXT/UTF8
Codec ID/Info : UTF-8 Plain Text
Language : English
Default : Yes
Forced : No





1 個附件 售價 大小 下載 時間

Dragon.Ball.Z.Broly.The.Legendary.Super.Saiyan.1993.REPACK.1080p.BluRay.x264-AERO.torrent 0 金幣 44.32K 1281 次 4天前

#1樓
發帖時間:2019-08-08 10:57:35   |   回復數:3
blue23
隱世仙人♂
感謝樓主分享
4天前 #2樓
911degrees
隱世仙人♂
非常感謝,謝謝分享
4天前 #3樓
liyouchai
隱世仙人♂
謝謝樓主分享資源
3天前 #4樓
游客組