conanlcg
超級版主

[更 早] [日本] [劇情] [BD-1080P] 龍珠Z劇場版7:極限之戰!! 三大超級賽亞人/龍珠Z 劇場版 超級賽亞人極限戰鬥 Dragon.Ball.Z.Super.Android.13.1992.108

-->

帖子完整標題:龍珠Z劇場版7:極限之戰!! 三大超級賽亞人/龍珠Z 劇場版 超級賽亞人極限戰鬥 Dragon.Ball.Z.Super.Android.13.1992.1080p.BluRay.x264-AERO 4.37GB


[img]https://img1.doubanio.com/view/photo/l_ratio_poster/public/p2561565888.jpg[img]

◎譯  名 龍珠Z劇場版7:極限之戰!! 三大超級賽亞人 / 龍珠Z 劇場版 超級賽亞人極限戰鬥
◎片  名 ドラゴンボール Z 劇場版:極限バトル!! 三大超サイヤ人
◎年  代 1992
◎產  地 日本
◎類  別 劇情 / 動畫
◎語  言 日語
◎上映日期 1992-07-11
◎IMDb評分 7.2/10 from 5500 users
◎IMDb鏈接 http://www.imdb.com/title/tt0142241
◎豆瓣評分 7.5/10 from 1390 users
◎豆瓣鏈接 https://movie.douban.com/subject/3271272/
◎片  長 46分鐘
◎導  演 菊池一仁 / 鳥山 明
◎編  劇 鳥山明 Akira Toriyama
◎主  演 野澤雅子 Masako Nozawa
      古川登志夫 Toshio Furukawa


◎標  簽 動畫 | 龍珠 | 日本 | 劇場版 | 日本動畫 | 1992 | 鳥山明 | 動漫

◎簡  介

  孫悟飯開學在即,琪琪強拖著悟空父子來到鬧市區購買衣服。懼內的悟空對琪琪這個兄巴巴的購物狂無計可施,只能任其擺布。正當一家三口共進午餐之時,城市街道接連發生爆炸事件。悟空前往查看,發現肇事者是兩個長相怪異之人。他們就是邪惡科學家格洛博士制造的人造人14號、15號,兩個邪惡家伙與悟空以及隨即趕來的特南克斯大打出手。為避免殃及無辜,他們將戰場轉移至無人荒原。
  經過一番纏斗,14號、15號被消滅,但是接下來出場的13號吸收了兩個同伴的芯片,變身為強大無比的對手。悟空、特南克斯、貝吉塔、比克以及克林聯手也無法打敗13號。地球危在旦夕,龍珠戰士該如何克服難關呢?
Video
ID : 1
Format : AVC
Format/Info : Advanced Video Codec
Format profile : [email protected]
Format settings : CABAC / 4 Ref Frames
Format settings, CABAC : Yes
Format settings, Reference frames : 4 frames
Muxing mode : Header stripping
Codec ID : V_MPEG4/ISO/AVC
Duration : 46 min 0 s
Bit rate : 12.3 Mb/s
Width : 1 920 pixels
Height : 1 080 pixels
Display aspect ratio : 16:9
Frame rate mode : Constant
Frame rate : 23.976 (24000/1001) FPS
Color space : YUV
Chroma subsampling : 4:2:0
Bit depth : 8 bits
Scan type : Progressive
Bits/(Pixel*Frame) : 0.248
Stream size : 3.87 GiB (89%)
Writing library : x264 core 107 r1745 4785e8e
Encoding settings : cabac=1 / ref=4 / deblock=1:0:0 / analyse=0x3:0x133 / me=umh / subme=7 / psy=1 / psy_rd=1.00:0.00 / mixed_ref=1 / me_range=16 / chroma_me=1 / trellis=1 / 8x8dct=1 / cqm=0 / deadzone=21,11 / fast_pskip=0 / chroma_qp_offset=-2 / threads=6 / sliced_threads=0 / nr=0 / decimate=1 / interlaced=0 / constrained_intra=0 / bframes=3 / b_pyramid=2 / b_adapt=1 / b_bias=0 / direct=1 / weightb=1 / open_gop=0 / weightp=2 / keyint=250 / keyint_min=23 / scenecut=40 / intra_refresh=0 / rc_lookahead=40 / rc=2pass / mbtree=1 / bitrate=12332 / ratetol=1.0 / qcomp=0.60 / qpmin=10 / qpmax=51 / qpstep=4 / cplxblur=20.0 / qblur=0.5 / ip_ratio=1.40 / aq=1:1.00
Language : English
Default : Yes
Forced : No

Audio #1
ID : 2
Format : AC-3
Format/Info : Audio Coding 3
Commercial name : Dolby Digital
Muxing mode : Header stripping
Codec ID : A_AC3
Duration : 46 min 0 s
Bit rate mode : Constant
Bit rate : 640 kb/s
Channel(s) : 6 channels
Channel layout : L R C LFE Ls Rs
Sampling rate : 48.0 kHz
Frame rate : 31.250 FPS (1536 SPF)
Bit depth : 16 bits
Compression mode : Lossy
Stream size : 211 MiB (5%)
Language : English
Service kind : Complete Main
Default : No
Forced : No

Audio #2
ID : 3
Format : AC-3
Format/Info : Audio Coding 3
Commercial name : Dolby Digital
Muxing mode : Header stripping
Codec ID : A_AC3
Duration : 46 min 0 s
Bit rate mode : Constant
Bit rate : 640 kb/s
Channel(s) : 1 channel
Channel layout : C
Sampling rate : 48.0 kHz
Frame rate : 31.250 FPS (1536 SPF)
Bit depth : 16 bits
Compression mode : Lossy
Stream size : 211 MiB (5%)
Language : Japanese
Service kind : Complete Main
Default : Yes
Forced : No

Text
ID : 4
Format : UTF-8
Codec ID : S_TEXT/UTF8
Codec ID/Info : UTF-8 Plain Text
Language : English
Default : Yes
Forced : No





1 個附件 售價 大小 下載 時間

Dragon.Ball.Z.Super.Android.13.1992.1080p.BluRay.x264-AERO.torrent 0 金幣 44.27K 1295 次 2天前

#1樓
發帖時間:2019-08-08 10:51:36   |   回復數:3
blue23
隱世仙人♂
感謝樓主分享
2天前 #2樓
911degrees
隱世仙人♂
非常感謝,謝謝分享
2天前 #3樓
liyouchai
隱世仙人♂
謝謝樓主分享資源
2天前 #4樓
游客組